<?xml version="1.0" standalone="no"?>
<!DOCTYPE svg PUBLIC "-//W3C//DTD SVG 1.1//EN" "http://www.w3.org/Graphics/SVG/1.1/DTD/svg11.dtd">
<svg xmlns="http://www.w3.org/2000/svg">
<metadata>Copyright (C) 2016 by original authors @ fontello.com</metadata>
<defs>
<font id="fontello" horiz-adv-x="1000" >
<font-face font-family="fontello" font-weight="400" font-stretch="normal" units-per-em="1000" ascent="850" descent="-150" />
<missing-glyph horiz-adv-x="1000" />
<glyph glyph-name="wedding-invitation" unicode="&#xe800;" d="M825 666h-179v166c0 6-3 11-8 15-5 3-12 4-17 2l-452-183c-3-1-6-3-8-6-3-3-4-8-4-12v-780c0-10 8-18 18-18h650c10 0 18 8 18 18v780c0 10-8 18-18 18z m-216 138v-138h-339l339 138z m197-917h-612v743h612v-743z m-433 398c-8 21-8 42 1 59 7 13 20 23 34 25 10 2 16 12 14 22-1 10-11 16-21 15-25-5-46-21-59-44-15-27-16-59-3-91 3-7 10-12 17-12 2 0 5 1 7 2 9 3 14 14 10 24z m118-235c3-1 6-2 9-2 3 0 6 1 9 2 89 47 153 101 191 159 40 64 39 117 31 151-16 63-71 108-132 108-38 0-72-17-99-49-27 32-61 49-99 49-61 0-116-45-132-108-8-34-9-87 32-151 37-58 101-112 190-159z m-186 301c12 47 52 81 96 81 32 0 62-19 83-54 4-5 10-8 16-8 6 0 12 3 16 8 21 35 51 54 83 54 44 0 84-34 96-81 8-33 18-148-195-264-213 116-203 231-195 264z" horiz-adv-x="1000" />

<glyph glyph-name="wedding-location" unicode="&#xe801;" d="M592 601c-35 0-67-15-92-42-25 27-57 42-92 42-59 0-113-44-127-105-8-31-9-81 30-140 36-53 96-102 179-145 3-1 7-2 10-2 4 0 7 1 10 2 83 43 143 92 179 145 39 59 38 109 30 140-14 61-68 105-127 105z m-268-115c10 40 45 70 84 70 29 0 54-16 73-46 4-6 11-10 19-10 8 0 15 4 19 10 19 30 45 46 73 46 39 0 74-30 84-70 18-75-48-161-176-229-128 68-194 154-176 229z m176 364c-211 0-384-172-384-384 0-205 353-592 368-609 4-4 10-7 16-7 6 0 12 3 17 7 15 17 367 404 367 609 0 212-172 384-384 384z m339-384c0-76-61-200-176-358-66-90-133-168-163-202-30 34-97 112-163 202-115 158-176 282-176 358 0 187 152 339 339 339 187 0 339-152 339-339z" horiz-adv-x="1000" />

<glyph glyph-name="wedding-planning" unicode="&#xe802;" d="M979 832h-740c-12 0-21-9-21-21v-427h-196c-12 0-22-10-22-22v-364c0-72 58-130 130-130 2 0 740 0 740 0 72 0 130 58 130 130v813c0 12-10 21-21 21z m-936-834v343h175v-343c0-48-40-87-88-87-48 0-87 39-87 87z m914 0c0-48-39-87-87-87h-643c21 23 34 53 34 87v791h696v-791z m-378 586h275c12 0 21 10 21 22 0 11-9 21-21 21h-275c-12 0-22-10-22-21 0-12 10-22 22-22z m0-236h275c12 0 21 10 21 22 0 11-9 21-21 21h-275c-12 0-22-10-22-21 0-12 10-22 22-22z m0-236h275c12 0 21 10 21 22 0 11-9 21-21 21h-275c-12 0-22-10-22-21 0-12 10-22 22-22z m-199 448c4-4 10-7 16-7 0 0 0 0 0 0 6 0 12 3 16 7l118 129c8 9 7 23-1 31-9 8-23 7-31-2l-102-112-32 34c-8 9-22 9-30 1-9-8-9-22-1-30l47-51z m118-88l-102-112-32 34c-8 8-22 9-30 1-9-9-9-22-1-31l47-50c4-5 10-7 16-7 0 0 0 0 0 0 6 0 12 3 16 7l118 129c8 9 7 23-1 31s-23 7-31-2z m0-246l-102-112-32 34c-8 8-22 9-30 0-9-8-9-21-1-30l47-51c4-4 10-6 16-6 0 0 0 0 0 0 6 0 12 2 16 7l118 129c8 9 7 22-1 30-9 8-23 8-31-1z" horiz-adv-x="1000" />

<glyph glyph-name="wedding-reception" unicode="&#xe803;" d="M231 460c2 0 4-1 6-1 9 0 17 6 20 16 37 139 156 163 161 164 11 2 18 13 16 24-2 11-13 18-24 16-6-1-148-28-193-194-3-11 4-22 14-25z m729-35h-81c-7 93-47 178-113 243-51 50-114 84-182 99-5 42-41 74-84 74s-79-32-84-74c-68-15-131-49-181-99-67-65-107-150-114-243h-81c-22 0-40-18-40-40v-43c0-22 18-40 40-40h228c12-17 62-92 79-113 28-34 105-50 142-56l-28-252c-1-11 7-21 18-22 1 0 2 0 2 0 11 0 19 7 21 18l30 271c1 11-6 21-18 22-45 6-117 23-135 45-16 20-56 79-61 87h45c12-10 37-32 67-55 22-16 112-14 159-1 4 2 8 5 11 9l32 47h40l-47-161c0-2 0-4 0-6l5-256c0-11 9-20 20-20 0 0 0 0 0 0 12 0 21 9 20 21l-4 252 49 170h245c22 0 40 18 40 40v43c0 22-18 40-40 40z m-460 311c178 0 323-135 338-310h-676c15 175 160 310 338 310z m0 64c18 0 33-10 40-26-13 2-26 3-40 3s-27-1-40-3c7 16 22 26 40 26z m70-516c-42-10-103-8-116-4-10 8-19 15-28 22h157l-13-18z m389 59h-918v41h918v-41z" horiz-adv-x="1000" />

<glyph glyph-name="wedding-rings" unicode="&#xe804;" d="M666 429c-60 0-117-18-166-53-34 24-72 41-114 48l113 75c7 4 10 13 7 21l-34 90c-2 7-9 12-16 12h-243c-7 0-14-5-17-12l-33-90c-3-8 0-17 7-21l113-74c-136-25-239-143-239-285 0-160 130-290 290-290 60 0 117 18 166 53 47-34 105-53 166-53 160 0 290 130 290 290 0 159-130 289-290 289z m-586-289c0 140 114 254 254 254 140 0 254-114 254-254 0-46-12-91-36-130-12 11-23 24-32 38 14 28 22 60 22 92 0 114-94 208-208 208-115 0-209-94-209-208 0-115 94-209 209-209 37 0 73 10 105 29 10-12 21-24 32-34-41-27-88-41-137-41-140 0-254 114-254 255z m254-173c-96 0-173 77-173 173 0 95 77 172 173 172 31 0 60-8 85-22-28-45-42-97-42-150 0-55 15-107 42-151-26-14-55-22-85-22z m166 219c4-15 6-30 6-46 0-16-2-32-6-47-4 15-6 31-6 47 0 15 2 31 6 46z m81 104c26 15 55 22 85 22 96 0 173-77 173-172 0-96-77-173-173-173-31 0-60 8-85 22 28 46 42 97 42 151 0 55-15 106-42 150z m-157 241h-179l90 52 89-52z m19 55l12-32-55 32h43z m-218 0h44l-56-32 12 32z m14-90h191l-96-63-95 63z m427-611c-140 0-254 114-254 255 0 46 13 90 36 129 12-11 23-23 32-37-14-29-22-60-22-92 0-115 94-209 208-209 115 0 209 94 209 209 0 114-94 208-209 208-37 0-73-10-105-29-10 12-21 24-32 34 41 27 88 41 137 41 140 0 254-114 254-254 0-141-114-255-254-255z m-332 848c10 0 18 8 18 18v81c0 10-8 18-18 18-9 0-17-8-17-18v-81c0-10 8-18 17-18z m-197-74c4-3 8-5 13-5 4 0 9 2 12 5 7 7 7 18 0 25l-57 58c-7 7-18 7-25 0-7-7-7-18 0-25l57-58z m382-5c4 0 9 2 12 5l58 58c7 7 7 18 0 25-7 7-18 7-25 0l-58-58c-7-7-7-18 0-25 4-3 8-5 13-5z" horiz-adv-x="1000" />

<glyph glyph-name="big-church" unicode="&#xe805;" d="M500 500c-42 0-77-34-77-76 0-42 35-77 77-77 42 0 77 35 77 77 0 42-35 76-77 76z m0-118c-23 0-42 19-42 42 0 23 19 41 42 41 23 0 42-18 42-41 0-23-19-42-42-42z m452-497h-62v212c0 6-4 13-10 15l-111 52v70c0 7-4 13-10 16l-109 54v177c0 4-1 7-3 11l-129 160v106h35c9 0 17 8 17 18 0 10-8 17-17 17h-35v40c0 9-8 17-18 17-10 0-17-8-17-17v-40h-36c-9 0-17-7-17-17 0-10 8-18 17-18h36v-106l-130-160c-2-4-3-7-3-11v-177l-109-54c-6-3-10-9-10-16v-70l-111-52c-6-2-10-9-10-15v-212h-62c-9 0-17-8-17-18s8-17 17-17h904c9 0 17 8 17 17s-8 18-17 18z m-97 0h-86v241l86-41v-200z m-624 0h-86v200l86 41v-241z m227 0v160c0 10 18 22 42 22 24 0 42-12 42-22v-160h-84z m276 0h-157v160c0 32-34 57-77 57-43 0-77-25-77-57v-160h-157v339l109 54c6 3 10 9 10 15v181l115 144 115-144v-181c0-6 4-12 10-15l109-54v-339z" horiz-adv-x="1000" />

<glyph glyph-name="bouquet-of-flowers" unicode="&#xe806;" d="M795 497c23 22 37 54 37 88 0 45-25 86-64 108-10 5-22 2-27-7l-33-58-15 25c22 23 35 54 35 86 0 45-25 87-64 109-9 5-21 2-27-8l-33-57-33 57c-6 10-18 13-27 8-18-11-33-25-44-41-11 16-26 30-44 41-9 5-21 2-27-8l-33-57-33 57c-5 10-18 13-27 8-39-22-64-64-64-109 0-32 13-63 35-86l-15-25-33 58c-5 9-17 12-27 7-39-22-64-63-64-108 0-34 14-66 37-88-2-2-4-4-5-6-4-6-4-14 0-20l200-339-22-260c-1-6 1-11 5-16 4-4 9-6 15-6h204c6 0 11 2 15 6 4 5 6 10 5 16l-22 260 200 339c4 6 4 14 0 20-1 2-3 4-5 6z m-248 304l40-69c3-6 10-10 17-10 7 0 14 4 17 10l40 69c17-16 27-38 27-62 0-18-6-35-16-49-7 6-16 8-24 3-18-10-33-24-44-41-11 17-26 31-44 41-8 5-17 3-24-3-10 14-16 31-16 49 0 24 10 46 27 62z m-127-911l19 226h41v-134c0-11 9-20 20-20 11 0 20 9 20 20v134h41l20-226h-161z m148 267h-28l43 185c3 11-4 22-15 25-10 2-21-5-24-15l-44-192-44 192c-3 10-13 17-24 15-11-3-18-14-15-25l43-185h-28l-180 304h496l-180-304z m-185 344c5 5 9 11 13 16 4-5 8-11 13-16h-26z m208 0c5 5 9 11 13 16 4-5 8-11 13-16h-26z m-91 171c4-7 9-13 15-19l-15-25-14 25c5 6 10 12 14 19z m-17-94c3-6 10-10 17-10s14 4 17 10l40 68c17-15 27-37 27-61 0-46-38-84-84-84s-84 38-84 84c0 24 10 46 27 61l40-68z m-144 223l40-69c3-6 10-10 17-10s14 4 18 10l39 69c17-16 27-38 27-62 0-18-6-35-16-49-6 6-16 8-24 3-18-10-33-24-44-41-11 17-25 31-43 41-8 5-18 3-24-3-11 14-17 31-17 49 0 24 10 46 27 62z m-104-155l40-68c4-6 10-10 17-10 7 0 14 4 18 10l39 68c17-15 27-37 27-61 0-46-37-84-84-84s-84 38-84 84c0 24 11 46 27 61z m473-145c-46 0-84 38-84 84 0 24 10 46 27 61l39-68c4-6 11-10 18-10s14 4 17 10l40 68c17-15 27-37 27-61 0-46-38-84-84-84z" horiz-adv-x="1000" />

<glyph glyph-name="bow-tie" unicode="&#xe807;" d="M980 441h-96v102c0 7-3 13-9 17-6 3-13 4-19 1l-280-124c0-1-1-1-1-1-15 13-34 22-54 22h-41c-21 0-40-9-55-22 0 0-1 0-1 1l-280 124c-6 3-13 2-19-1-5-4-9-10-9-17v-102h-96c-11 0-20-9-20-20v-141c0-12 9-20 20-20h96v-103c0-6 4-13 9-16 4-3 7-4 11-4 3 0 6 1 8 2l280 125c0 0 1 0 1 0 15-13 34-22 55-22h41c20 0 39 9 54 22 0 0 1 0 1 0l280-125c2-1 5-2 8-2 4 0 8 1 11 4 6 3 9 10 9 16v103h96c11 0 20 8 20 20v141c0 11-9 20-20 20z m-864-141h-76v100h76v-100z m40 212l240-107v-35h-103c-11 0-20-9-20-20s9-20 20-20h103v-35l-240-107v324z m408-177c0-29-19-52-43-52h-41c-25 0-44 23-44 52v30c0 29 19 53 44 53h41c24 0 43-24 43-53v-30z m40-5h90c11 0 20 9 20 20s-9 20-20 20h-90v35l240 107v-324l-240 107v35z m356-30h-76v100h76v-100z" horiz-adv-x="1000" />

<glyph glyph-name="bridal-shoe" unicode="&#xe808;" d="M969 418c46 88 41 181-16 268-43 65-98 104-100 105-7 5-17 5-24-1-68-54-142-145-210-256-62-102-110-206-127-280-12-52-40-77-85-77h0c-35 0-67 15-67 15-5 3-10 3-15 1-2 0-15-5-35-12 2 9 1 18-1 27-9 29-38 48-72 48-9 0-18-1-27-4-20-6-37-18-48-34-12-17-16-38-10-56 3-12 10-23 19-31-41-15-79-29-97-36-37-15-54-50-54-79 0-48 44-71 71-78 11-4 105-33 308-33 25 0 52 1 79 2 155 5 178 85 201 170 4 12 7 25 11 38 21 66 87 139 127 180v-346c0-11 9-20 20-20h77c6 0 11 2 15 6 3 4 5 9 5 15 0 2-4 203 0 283 4 75 52 178 55 185z m-95-183c-3-67-1-212 0-265h-37v372c0 8-4 15-11 19-8 3-16 2-22-4-6-5-138-122-172-229-4-14-8-27-12-40-23-85-38-137-164-141-26-1-52-1-77-1-204 0-295 30-296 30-1 1-1 1-2 1-1 0-41 11-41 39 0 2 1 30 29 42 23 9 82 31 140 51 4-1 14-5 15-6 15-7 98-41 183-41 32 0 65 5 94 18 46 20 77 56 94 107 32 96 85 205 146 301 59 92 118 159 167 192 4-5 7-10 11-16 49-75 54-152 14-227 0-1 0-1 0-1-3-5-55-116-59-201z m-543-82c13-6 43-16 76-16 0 0 0 0 0 0 64 0 108 38 124 108 33 137 176 387 311 504 10-8 25-21 40-38-53-37-115-107-175-202-63-98-118-210-150-309-14-41-37-68-72-83-71-31-170-4-219 13 29 10 53 19 65 23z m-156 42c6 8 15 15 27 18 5 2 10 3 15 3 16 0 30-8 33-20 4-15-10-34-31-40-6-2-11-2-16-2-16 0-29 7-33 19-2 9 2 18 5 22z" horiz-adv-x="1000" />

<glyph glyph-name="bride-bust" unicode="&#xe809;" d="M462 427c0 11-9 20-20 20h-41c-11 0-19-9-19-20 0-11 8-19 19-19h41c11 0 20 8 20 19z m137 20h-41c-11 0-20-9-20-20 0-11 9-19 20-19h41c11 0 19 8 19 19 0 11-8 20-19 20z m238-413v324c0 112-30 231-80 320-62 113-151 172-257 172-106 0-195-59-257-172-50-89-80-208-80-320v-324c-48-42-47-88-46-98v-66c0-11 9-20 20-20h726c11 0 20 9 20 20v66c1 10 2 56-46 98z m-634 324c0 105 28 218 74 301 39 69 109 152 223 152s184-83 223-152c47-83 74-196 74-301v-298c-12 7-26 13-42 18-132 47-159 70-158 135 0 0 0 0 0 0v13c19 11 36 25 51 41 14 15 26 32 36 51 31 0 75 17 88 80 6 35-9 56-26 65-10 5-22 6-33 3-10 102-46 169-109 201 0 0 0 0 0 0 0 56-47 101-104 101-57 0-104-45-104-101 0 0 0 0 0 0-63-32-99-99-109-200-10 2-22 1-32-4-16-9-32-30-25-65 12-62 55-79 86-80 10-18 22-36 36-51 15-16 32-30 51-41v-13c0 0 0 0 0 0 1-65-26-88-158-135-16-5-30-11-42-18v298z m297-121c-43 0-86 21-119 57-40 43-60 104-55 165 1 7 1 12 2 18 15 3 52 11 90 33 38 20 65 47 82 79 17-32 45-59 82-79 38-22 76-30 90-33 1-6 1-11 2-18 5-61-15-122-55-165-33-36-76-57-119-57z m85-112c-3-32-40-58-85-58-45 0-82 26-85 58 18 22 27 48 27 83 19-7 39-10 58-10 20 0 39 3 58 10 0-35 9-61 27-83z m-64 524c77-6 123-48 143-130-16 4-40 12-64 25-45 26-72 61-79 105z m-21 40c-23 0-43-2-62-7 7 27 32 47 62 47 30 0 55-20 62-47-19 5-39 7-62 7z m-21-40c-7-44-33-79-79-105-24-13-48-21-64-25 20 82 66 124 143 130z m223-289c6 21 10 42 11 64 6 5 12 5 16 4 4-3 6-11 4-22-5-29-19-41-31-46z m-404 1c-12 5-24 18-29 45-3 11-1 19 4 22 3 1 8 1 14-3 1-22 5-43 11-64z m396-472h-392v22c0 14 46 41 156 43 3-5 21-39 23-42 1-2 3-4 5-6 3-2 7-4 12-4h0 0 0c5 0 9 2 12 4 2 2 4 4 5 6 2 3 20 37 23 42 110-2 156-29 156-43v-22z m150 48v-48h-111v22c0 51-79 83-206 83-12 0-17-9-22-19-2-3-5-8-7-12-2 4-5 9-7 12-5 10-10 19-22 19-127 0-206-32-206-83v-22h-107v48c0 1-4 67 102 104 53 19 95 36 125 56 16-41 63-70 117-70 55 0 101 29 118 70 29-20 71-37 124-56 106-37 102-103 102-104z m-307 415c-10 0-19-9-19-20 0-3-7-9-18-9-11 0-18 6-18 9 0 11-8 20-19 20-11 0-20-9-20-20 0-26 26-48 57-48 31 0 57 22 57 48 0 11-9 20-20 20z" horiz-adv-x="1000" />

<glyph glyph-name="butterfly-with-long-feelers" unicode="&#xe80a;" d="M1000 384c0 132-108 240-240 240-53 0-103-18-143-48l52 134c32 0 58 26 58 58 0 32-26 59-58 59-33 0-59-27-59-59 0-18 8-34 21-45l-106-275c-8 4-16 5-25 5-9 0-17-1-24-5l-108 276c13 11 21 27 21 44 0 32-26 59-58 59-33 0-59-27-59-59 0-32 26-58 59-58 0 0 0 0 0 0l52-133c-40 29-90 47-143 47-132 0-240-108-240-240 0-108 72-201 172-230-24-31-37-68-37-108 0-95 77-173 172-173 75 0 138 48 162 114 9-5 20-9 31-9 11 0 22 4 31 9 24-66 87-114 162-114 95 0 172 78 172 173 0 40-13 77-37 108 100 29 172 122 172 230z m-331 403c10 0 18-9 18-19s-8-18-18-18c-10 0-19 8-19 18s9 19 19 19z m-338-37c-11 0-19 8-19 18s8 19 19 19c10 0 18-9 18-19s-8-18-18-18z m-24-837c-73 0-132 60-132 133 0 41 18 79 50 104 7 5 9 13 7 21-2 8-9 14-17 15-100 12-175 97-175 198 0 110 90 200 200 200 110 0 200-90 200-200v-338c0-73-60-133-133-133z m213 126c0-11-9-20-20-20-11 0-20 9-20 20v354c0 11 9 20 20 20 11 0 20-9 20-20v-354z m265 147c-8-1-15-7-17-15-2-8 1-16 7-21 32-25 50-63 50-104 0-73-59-133-132-133-73 0-133 60-133 133v338c0 110 90 200 200 200 110 0 200-90 200-200 0-101-75-186-175-198z" horiz-adv-x="1000" />

<glyph glyph-name="champagne-bottle-uncork" unicode="&#xe80b;" d="M989 55l-213 213c-2 2-63 62-160 104l-1 1c-72 31-154 105-187 136 0 1 0 3 0 5-1 11-5 20-13 27l-22 18c-7 5-15 8-23 8-10 0-20-3-26-10l-50-50c-14-14-15-35-3-50l18-22c7-8 17-12 27-13 2 0 4 0 6 0 30-33 104-115 136-188 42-97 102-158 104-160l213-213c7-7 16-11 26-11 10 0 19 4 26 11l142 142c15 14 15 38 0 52z m-229 175l106-106-140-140-106 106 140 140z m-399 227c-6 7-15 8-23 4l-16 19 48 48 19-16c-4-7-3-17 4-23l1-1c34-33 122-113 203-149l-3-83-83-3c-36 81-116 169-149 203l-1 1z m168-242l84 4c10 0 18 8 18 18l4 84c45-24 78-49 97-65l-138-138c-16 19-41 53-65 97z m292-326l-41 41c0 0 0 0 0 1 0 0-1 0-1 0l-26 26 140 140 68-68-140-140z m-529 697l-97 96c-8 8-20 8-27 0-8-7-8-19 0-27l97-97c3-3 8-5 13-5s10 2 14 5c7 8 7 20 0 28z m-199 100c5 0 10 2 14 5l52 52c7 7 7 19 1 26l-64 74c-3 4-9 7-14 7-5 0-10-2-14-6l-62-62c-4-4-6-9-6-14 0-5 3-10 7-14l74-64c4-3 8-4 12-4z m-13 117l39-45-26-27-46 39 33 33z m246-201c4 0 9 2 13 5 8 8 8 20 1 27-30 31-29 81 2 111 8 7 8 19 1 27-8 7-20 8-27 0-47-44-48-118-4-164 4-4 9-6 14-6z m-248-68c-8-7-7-19 0-27 4-3 9-5 14-5 5 0 10 2 14 6 29 31 79 32 110 3 7-8 20-8 27 0 7 8 7 20-1 27-46 45-120 43-164-4z" horiz-adv-x="1000" />

<glyph glyph-name="champagne-glasses" unicode="&#xe80c;" d="M500 722c10 0 18 7 18 17v93c0 10-8 18-18 18-10 0-18-8-18-18v-93c0-10 8-17 18-17z m-87-14c4-3 8-5 13-5 4 0 9 2 12 5 7 7 7 18 0 25l-66 66c-6 7-18 7-25 0-6-7-6-18 0-25l66-66z m161-5c5 0 9 2 13 5l66 66c7 7 7 18 0 25-7 7-18 7-25 0l-66-66c-7-7-7-18 0-25 3-3 8-5 12-5z m-171-273c5 0 10 2 13 5 3 4 5 8 5 13 0 4-2 9-5 12-3 4-8 5-13 5-4 0-9-1-12-5-3-3-5-8-5-12 0-5 2-9 5-13 3-3 8-5 12-5z m429-514l-96 45-30 171c24 8 44 23 59 44 18 25 25 56 19 87l-68 398c-2 10-11 16-21 15l-195-34-195 34c-10 1-19-5-20-15l-69-398c-10-58 24-113 78-131l-30-171-96-45c-7-3-11-11-10-18 1-8 7-14 14-15l187-33c1 0 2 0 3 0 1 0 1 0 1 0 9 0 17 8 17 18 0 5-2 10-6 13l-75 74 30 171c1 0 1 0 2 0 57 0 106 41 115 97l54 309 54-309c9-56 58-97 115-97h0c1 0 2 0 2 0l30-171-76-75c-5-5-7-14-3-20 3-6 9-10 16-10 1 0 2 0 3 0l187 33c7 1 13 7 14 15 1 7-3 15-10 18z m-516 722l162-28-15-84-161 28 14 84z m1-476c-44 8-74 51-67 95l46 262 161-27-45-263c-7-39-41-68-81-68-5 0-9 1-14 1z m-7-267l-77 13 44 20 33-33z m278 334l-45 263 161 27 46-262c3-22-1-43-14-61-13-18-31-30-53-34-5 0-9-1-14-1-40 0-74 29-81 68z m96 409l14-84-161-28-15 84 162 28z m6-743l34 33 43-20-77-13z m-99 583c-5 0-9-2-13-6-3-3-5-7-5-12 0-5 2-9 5-13 4-3 8-5 13-5 4 0 9 2 12 5 4 4 6 8 6 13 0 5-2 9-6 12-3 4-8 6-12 6z m108-31c3 4 5 8 5 13 0 5-2 9-5 12-4 4-8 6-13 6-5 0-9-2-12-6-4-3-6-7-6-12 0-5 2-9 6-13 3-3 7-5 12-5 5 0 9 2 13 5z m-52-34c-5 0-9-2-12-6-4-3-6-7-6-12 0-5 2-9 6-13 3-3 7-5 12-5 5 0 9 2 12 5 4 4 6 8 6 13 0 5-2 9-6 12-3 4-7 6-12 6z m-333 5c-5 0-9-1-12-5-4-3-6-8-6-12 0-5 2-9 6-13 3-3 7-5 12-5s9 2 13 5c3 4 5 8 5 13 0 4-2 9-5 12-4 4-8 5-13 5z m84-58c0 5-2 9-5 13-3 3-8 5-12 5-5 0-10-2-13-5-3-4-5-8-5-13 0-5 2-9 5-12 3-4 8-6 13-6 4 0 9 2 12 6 3 3 5 8 5 12z" horiz-adv-x="1000" />

<glyph glyph-name="diamond-ring" unicode="&#xe80d;" d="M552 425l113 74c7 4 10 13 7 21l-34 90c-3 7-9 12-17 12h-242c-8 0-14-5-17-12l-34-90c-2-8 0-17 7-21l113-74c-135-25-238-143-238-285 0-160 130-290 290-290s290 130 290 290c0 142-103 260-238 285z m-52-540c-140 0-254 114-254 255 0 140 114 254 254 254s254-114 254-254c0-141-114-255-254-255z m0 698l89-52h-178l89 52z m109 3l12-32-55 32h43z m-218 0h44l-56-32 12 32z m14-90h190l-95-63-95 63z m95-148c-115 0-208-94-208-208 0-115 93-209 208-209s208 94 208 209c0 114-93 208-208 208z m0-381c-95 0-173 77-173 173 0 95 78 172 173 172s173-77 173-172c0-96-78-173-173-173z m-1 766c10 0 17 8 17 18v81c0 10-7 18-17 18s-18-8-18-18v-81c0-10 8-18 18-18z m-242-243c0 10-8 18-18 18h-81c-10 0-18-8-18-18 0-10 8-18 18-18h81c10 0 18 8 18 18z m585 18h-81c-10 0-18-8-18-18 0-10 8-18 18-18h81c10 0 18 8 18 18 0 10-8 18-18 18z m-540 151c3-3 8-5 12-5 5 0 9 2 13 5 7 7 7 18 0 25l-58 58c-7 7-18 7-25 0-7-7-7-18 0-25l58-58z m381-5c5 0 9 2 13 5l57 58c7 7 7 18 0 25-7 7-18 7-25 0l-57-58c-7-7-7-18 0-25 3-3 8-5 12-5z" horiz-adv-x="1000" />

<glyph glyph-name="double-bed-with-heart" unicode="&#xe80e;" d="M945 77c0 4-1 7-3 10 0 0 0 0 0 0l-106 176v220c0 12-9 21-20 21h-257c151 96 156 193 150 233-7 55-47 100-99 111-40 8-80-6-110-39-30 33-69 47-110 39-52-11-92-56-99-111-6-40 0-137 150-233h-257c-11 0-20-9-20-21v-220l-106-176c0 0 0 0 0 0-2-3-3-6-3-10v-132-75c0-11 9-20 20-20h129c11 0 20 9 20 20v54h552v-54c0-11 9-20 20-20h129c11 0 20 9 20 20v207z m-203 237c0-20-20-36-45-36h-106c-25 0-45 16-45 36v33c0 21 20 37 45 37h106c25 0 45-16 45-37v-33z m-288 0c0-20-20-36-45-36h-106c-25 0-45 16-45 36v33c0 21 20 37 45 37h106c25 0 45-16 45-37v-33z m350-77l85-140h-778l85 140h608z m-473 494c5 39 32 69 67 77 33 6 63-9 85-44 6-9 18-12 28-6 2 2 5 4 6 6 0 0 0 0 0 0 22 35 53 50 85 44 35-8 62-38 67-77 5-34-2-124-169-215-167 91-174 181-169 215z m-126-268h591v-185h-24c7 10 11 23 11 36v33c0 43-39 78-86 78h-106c-47 0-85-35-85-78v-33c0-13 3-26 10-36h-32c7 10 11 23 11 36v33c0 43-39 78-86 78h-106c-47 0-85-35-85-78v-33c0-13 3-26 10-36h-23v185z m-22-572h-87v33h87v-33z m721 0h-87v33h87v-33z m0 74h-808v91h808v-91z" horiz-adv-x="1000" />

<glyph glyph-name="engagement-ring" unicode="&#xe80f;" d="M307 572c11 0 21 10 21 22v67c0 12-10 22-21 22s-22-10-22-22v-67c0-12 10-22 22-22z m-196-197c0 12-10 22-22 22h-67c-12 0-22-10-22-22 0-11 10-21 22-21h67c12 0 22 10 22 21z m393 0c0-11 10-21 22-21h68c12 0 21 10 21 21 0 12-9 22-21 22h-68c-12 0-22-10-22-22z m-367 137c4-4 10-6 15-6 6 0 11 2 15 6 9 8 9 22 0 30l-48 48c-8 9-22 9-30 0-8-8-8-22 0-30l48-48z m324-6c5 0 11 2 15 6l48 48c8 8 8 22 0 30-8 9-22 9-30 0l-48-48c-9-8-9-22 0-30 4-4 9-6 15-6z m501 19l-40 40c-8 9-22 9-30 0l-342-342h-191v95l90 59c8 5 12 16 8 25l-28 76c-3 8-11 14-20 14h-203c-9 0-17-6-20-14l-28-76c-4-9 0-20 8-25l91-59v-95h-196c-12 0-21-9-21-21v-87c0-81 146-98 268-98 122 0 268 17 268 98v38l7-7c25-25 59-38 99-38 0 0 0 0 0 0 70 0 150 39 215 103 49 50 84 108 97 166 14 61 3 113-32 148z m-879-345h450v-65c0-27-71-55-225-55s-225 28-225 55v65z m217 43v63h16v-63h-16z m-96 180l17 46h173l17-46-82-53v40c0 12-9 22-21 22-12 0-22-10-22-22v-40l-82 53z m385-202l318 319 25-26c51-50 21-166-66-252-55-56-126-91-184-91-28 0-52 9-68 25l-25 25z" horiz-adv-x="1000" />

<glyph glyph-name="eros-bow-and-arrow" unicode="&#xe810;" d="M997 42c-4 11-17 17-28 12l-101-41-47 48 84 34c11 4 17 17 12 28-4 11-17 16-28 12l-101-41-234 234 307 307c14-8 29-12 46-12 24 0 47 10 65 27 36 36 36 94 0 130-18 17-41 27-65 27-21 0-41-7-57-20-69 18-156 6-252-35-95-40-191-106-279-190l-128 129 87 87c6 6 8 14 5 22-2 8-9 13-17 15l-240 35c-7 1-14-1-19-6-4-5-7-12-6-19l36-240c1-8 6-15 14-17 2-1 5-1 7-1 6 0 11 2 15 6l87 87 129-128c-84-87-149-183-190-279-41-95-53-182-35-251-31-36-29-91 5-125 17-17 40-27 65-27 24 0 47 10 65 27 17 17 27 40 27 65 0 16-5 32-13 46l310 310 234-235-41-101c-4-11 1-24 12-28 3-1 6-2 9-2 8 0 16 5 20 14l34 84 47-47-41-101c-5-11 1-24 12-28 2-2 5-2 8-2 8 0 17 5 20 14l43 105 105 43c12 5 17 17 12 28z m-924 592l-25 169 169-25-144-144z m450-275l-107 107c130 125 281 207 404 218 2-6 6-13 9-19l-306-306z m349 390c10 10 22 15 35 15 13 0 25-5 34-15 19-19 19-49 0-68-9-10-21-15-34-15-13 0-25 5-35 15-9 9-14 21-14 34 0 13 5 25 14 34z m-733-512c41 96 108 192 196 280 87 87 184 155 280 195 77 33 149 46 206 37-2-7-4-14-5-22-138-13-306-106-446-246-141-140-234-310-247-448-7 0-14-2-20-4-10 57 3 129 36 208z m29-329c-9-10-21-15-34-15-13 0-25 5-35 15-19 18-19 49 0 68 10 9 22 14 35 14 13 0 25-5 34-14 9-9 14-21 14-34 0-13-5-25-14-34z m15 111c-5 4-11 7-17 9 11 123 93 276 219 407l107-107-309-309z" horiz-adv-x="1000" />

<glyph glyph-name="faq" unicode="&#xe811;" d="M854 704c-95 94-220 146-354 146-134 0-259-52-354-146s-146-220-146-354 52-259 146-354c95-94 220-146 354-146 134 0 259 52 354 146 94 95 146 220 146 354s-52 259-146 354z m-354-814c-254 0-460 206-460 460s206 460 460 460 460-206 460-460-206-460-460-460z m0 878c-142 0-257-116-257-257 0-39 31-70 70-70s70 31 70 70c0 64 52 117 117 117 65 0 118-53 118-117 0-66-53-119-118-119-38 0-70-31-70-70v-137c0-38 32-69 70-69s70 31 70 69v77c50 15 96 45 129 86 37 45 58 103 58 163 0 141-115 257-257 257z m46-471c-10-2-16-10-16-19v-93c0-16-13-29-30-29s-30 13-30 29v137c0 17 14 30 30 30 87 0 157 71 157 159 0 86-70 157-157 157-87 0-157-71-157-157 0-17-14-30-30-30s-30 13-30 30c0 119 97 217 217 217 120 0 217-98 217-217 0-102-72-192-171-214z m-46-217c-38 0-70-31-70-70v-8c0-38 32-70 70-70s70 32 70 70v8c0 39-32 70-70 70z m30-78c0-16-13-30-30-30s-30 14-30 30v8c0 17 14 30 30 30s30-13 30-30v-8z m-412 268c-6 26-8 53-8 80 0 11-9 20-20 20s-20-9-20-20c0-29 3-59 9-88 2-9 10-16 19-16 2 0 3 1 4 1 11 2 18 13 16 23z m227-278c-88 38-159 107-199 193-5 10-16 14-26 10-10-5-15-17-10-27 44-95 122-171 219-213 2-1 5-2 8-2 7 0 15 5 18 12 4 11 0 22-10 27z" horiz-adv-x="1000" />

<glyph glyph-name="gift-box-with-lace" unicode="&#xe812;" d="M901 626h-224c4 4 9 8 13 12 28 28 47 62 53 96 7 36-1 68-23 90-17 17-40 26-67 26-40 0-85-21-119-55-14-14-25-29-34-44-9 15-20 30-34 44-34 34-79 55-119 55-27 0-50-9-67-26-44-44-31-125 30-186 4-4 9-8 14-12h-225c-48 0-88-40-88-88v-23c0-49 40-88 88-88h13v-489c0-49 40-88 88-88h600c48 0 88 39 88 88v489h13c49 0 88 39 88 88v23c0 48-39 88-88 88z m-337 139c27 27 60 43 89 43 11 0 26-3 37-14 11-12 16-30 11-53-4-25-19-51-41-72-26-27-60-43-89-43-10 0-25 2-36 13-27 26-13 84 29 126z m-224-96c-42 42-56 99-30 125 11 11 26 14 37 14 29 0 62-16 89-43 22-22 36-48 41-73 4-22 0-41-12-53-10-11-25-13-36-13-29 0-62 16-89 43z m70-777h-210c-25 0-45 21-45 46v489h255v-535z m0 577h-311c-25 0-45 21-45 46v23c0 25 20 45 45 45h311v-114z m137-577h-94v691h94v-691z m298 46c0-25-20-46-45-46h-210v535h255v-489z m102 577c0-25-21-46-46-46h-311v114h311c25 0 46-20 46-45v-23z" horiz-adv-x="1000" />

<glyph glyph-name="global-refreshment" unicode="&#xe813;" d="M219 353c0-155 126-281 281-281 155 0 282 126 282 281 0 155-127 281-282 281-155 0-281-126-281-281z m119-185c20-11 44-16 65-13 45 7-34 43 5 63 38 19 43 71 30 67-13-5-46 8-69 25-24 18-33-4-50-13-17-8-23-75-23-75 0-4 1-7 3-11-23 32-38 68-43 108 21 11 55 30 67 40 18 15-6 21-9 30-3 9 0 30 0 51 0 21 43 21 57 43 11 15-8 48-21 66 42 32 94 51 150 51 15 0 30-1 44-4 4-26 13-62 30-71 27-15 60-48 72-54 12-6 27-58 24-79-3-21-39-45-30-66 9-21-6-46-6-46s-15-69-24-78c-9-9-63-33-51-48 12-15 48 3 84 12 9 2 18 5 26 8-44-42-103-68-169-68-62 0-119 24-162 62z m406 148c-5 21-15 42-37 58-15 11-28 57-19 72 6 9 20 17 30 22 19-34 29-73 29-115 0-13-1-25-3-37z m-361 97c-14-60 32-6 40 5 9 11 13 62-2 77-15 15-38-82-38-82z m530 208l-67-56c43-72 66-156 58-246-19-223-216-389-439-370-46 4-90 17-130 35l51 62-194 3 36-199 51 64c54-28 114-45 178-51 271-23 510 178 533 449 10 113-20 220-77 309z m-412 142c74 0 144-20 204-56l-48-51 193-18-21 202-63-68c-77 49-168 78-265 78-272 0-493-220-493-492 0-114 39-218 104-302l62 62c-50 67-80 149-80 239 0 225 182 406 407 406z" horiz-adv-x="1000" />

<glyph glyph-name="groom" unicode="&#xe814;" d="M878 115c-105 43-210 89-210 89v50c0 7-3 13-9 17-5 3-12 4-19 1l-32-14v43c40 27 74 70 97 123 1 0 3 0 5 0 30 0 58 24 68 61 11 42-6 83-41 92 0 0 0 0 0 0 4 93-16 163-59 208-39 43-99 65-178 65-79 0-139-22-178-65-43-45-63-115-59-208 0 0 0 0 0 0-35-9-52-50-41-92 10-37 38-61 68-61 2 0 4 0 6 0 22-53 56-96 96-123v-43l-32 14c-6 3-14 2-19-1-6-4-9-10-9-17v-50c-1-1-105-46-210-89-93-38-111-91-111-170v-75c0-11 9-20 20-20h938c11 0 20 9 20 20v75c0 79-18 132-111 170z m-145 419c7-7 11-22 6-39-3-14-11-23-19-28 6 21 11 44 13 67z m-472-39c-5 17-1 32 6 39 3-23 7-46 13-67-8 5-15 14-19 28z m367-272v-80l-82 44 82 36z m-196 57c22-8 44-13 68-13 24 0 46 5 68 13v-40l-68-29-68 29v40z m68 530c68 0 117-17 149-52 20-22 34-51 42-88-79-1-153 18-219 57-44 27-71 55-78 63 28 13 63 20 106 20z m-149-52c3 4 6 7 10 10 0-1 0-1 0-1 1-1 14-17 39-38-31-59-74-71-93-74 6 44 21 78 44 103z m-47-198c-1 19-2 37-1 54 23 2 86 14 130 91 5-4 11-7 17-11 49-30 128-64 232-64 5 0 9 0 14 1 2-22 2-46 0-71-11-147-93-253-196-253-103 0-185 106-196 253z m68-337l82-36-82-44v80z m-102-307l15-26h-61v36c0 11-9 20-20 20s-20-9-20-20v-36h-133v55c0 68 12 103 86 133 62 26 123 51 163 68l-64-143c-3-7-2-14 1-19 4-6 10-9 17-9h57l-37-35c-7-6-9-16-4-24z m60-26l-17 32 62 58c6 6 8 14 5 22-3 8-10 13-18 13h-77l47 105v-11c0-7 3-13 9-17 4-2 7-3 11-3 3 0 6 1 9 3l2 1 104-203h-137z m68 222l102 54 102-54-102-198-102 198z m272-222h-137l104 203 2-1c3-2 6-3 9-3 4 0 7 1 11 3 6 4 9 10 9 17v11l47-105h-77c-8 0-15-5-18-13-3-8-1-16 5-22l63-58-18-32z m279 0h-133v36c0 11-9 20-20 20s-20-9-20-20v-36h-60l14 26c5 8 3 18-4 24l-37 35h57c7 0 13 3 17 9 3 5 4 12 1 19l-64 143c41-17 101-42 163-68 74-30 86-65 86-133v-55z m-505 619h-64c-11 0-20 9-20 20s9 20 20 20h64c11 0 20-9 20-20s-9-20-20-20z m176 0h-64c-11 0-20 9-20 20s9 20 20 20h64c11 0 20-9 20-20s-9-20-20-20z m-120-129c-32 0-58 22-58 49 0 11 9 20 20 20 11 0 20-9 20-20 0-3 7-9 18-9 11 0 18 6 18 9 0 11 9 20 20 20 11 0 20-9 20-20 0-27-26-49-58-49z" horiz-adv-x="1000" />

<glyph glyph-name="groom-shoes" unicode="&#xe815;" d="M956 481c-4 8-14 11-23 8-1-1-140-59-221-60 0 0-1 0-2 0-76 0-163 81-164 82-7 6-17 7-24 1l-44-35c4 14 10 31 22 41 8 6 9 18 2 26-6 7-18 8-26 2-22-19-31-47-35-69-23 7-50 3-69-15-25-22-30-56-15-84l-92-74c-12 0-42-1-81-1-28 0-55 0-81 1-1 0-2 0-3 0-59 0-94-53-99-74-3-13 4-21 10-24 49-24 264-56 409-56 74 0 121 8 145 25 37 27 84 43 124 51v-43c0-11 9-19 19-19h270c10 0 18 8 18 19v71c0 0 0 0 0 0 19 123-37 223-40 227z m-230-248c33 4 57 4 60 4l173 0v-36h-233v32z m-330 202c11 9 25 11 37 5l-47-38c-3 12 1 24 10 33z m147-230c-8-6-35-18-123-18-130 0-313 27-377 46 9 14 29 35 59 34 26-1 54-1 82-1 51 0 88 1 88 1 4 0 8 2 11 4l100 81 44-39c3-3 8-4 12-4 5 0 10 2 14 6 7 8 6 19-2 26l-39 34 44 36 66-57c3-4 8-5 12-5 5 0 10 2 14 6 6 8 6 19-2 26l-61 54 48 38c29-24 106-83 180-81 72 1 178 41 218 56 13-28 39-96 31-174h-176l0 0c-16 0-150-2-243-69z" horiz-adv-x="1000" />

<glyph glyph-name="heart-shaped-balloons" unicode="&#xe816;" d="M382 742c-30-6-56-25-71-52-18-32-20-71-5-110 3-7 10-12 17-12 3 0 5 1 7 1 10 4 14 15 11 24-11 29-11 56 2 78 10 18 27 31 46 34 10 2 16 11 15 22-2 10-12 16-22 15z m-257-206c-21-4-38-17-49-35-12-22-13-47-3-73 3-7 10-11 17-11 3 0 5 0 7 1 10 4 14 14 11 24-6 15-6 29 1 40 5 9 13 16 22 17 10 2 17 11 15 22-2 10-11 16-21 15z m799-35c-11 18-28 31-48 35-10 1-20-5-22-15-2-11 5-20 15-22 9-1 18-8 23-17 6-11 6-25 0-40-3-10 2-20 11-24 2-1 4-1 7-1 7 0 14 4 17 11 10 26 9 51-3 73z m74-10c-8 56-49 100-101 111-42 8-83-8-113-43-8 9-16 17-25 23 11 42 8 77 2 103-18 71-79 122-148 122-44 0-85-21-115-60-31 39-72 60-116 60-69 0-130-51-148-122-7-26-10-62 3-106-7-6-14-12-21-20-30 35-71 51-113 43-52-11-93-55-101-111-7-44-1-155 184-264l-31-31c-7-7-7-19 0-26 3-4 8-6 13-6 5 0 9 2 13 6l16 16c1-72 12-219 85-288 4-3 8-5 13-5 5 0 9 2 13 6 7 8 7 19-1 26-62 59-72 195-73 262l18-17c7-7 19-7 26 0 7 7 7 19 0 26l-31 31c75 44 129 95 159 147 19-13 39-26 61-39l-30-30c-7-7-7-19 0-26 7-7 19-7 26 0l17 17v-384c0-10 8-19 18-19 11 0 19 9 19 19v384l17-17c3-4 8-5 13-5 4 0 9 1 13 5 7 7 7 19 0 26l-31 31c23 13 44 27 64 41 29-54 84-105 161-150l-32-31c-7-7-7-19 0-26 8-7 19-7 26 0l18 17c-1-67-11-203-73-262-8-7-8-18-1-26 4-4 9-6 13-6 5 0 10 2 13 5 73 69 84 216 85 288l16-16c4-4 8-6 13-6 5 0 10 2 13 6 8 7 8 19 0 26l-31 31c186 109 191 220 184 264z m-728 184c14 55 61 95 112 95 39 0 74-23 100-65 3-6 9-9 15-9h0c7 0 13 3 16 9 26 42 61 65 100 65 51 0 98-40 112-95 10-38 22-175-228-314-249 139-237 276-227 314z m-54-423c-68 39-117 81-148 125-25 37-35 74-30 108 6 41 35 73 72 81 35 6 68-11 90-48 4-6 10-9 16-9 0 0 0 0 0 0 7 0 13 3 16 9 6 9 12 18 19 24 5-10 11-20 18-31 25-40 61-78 107-115-27-50-82-100-160-144z m568 0c-79 45-135 95-161 147 44 36 79 73 103 112 8 12 14 24 19 35 9-8 16-17 23-28 3-6 9-9 16-9 6 0 12 3 16 9 22 37 55 54 90 48 37-8 66-40 72-81 5-34-5-71-30-108-31-44-80-86-148-125z" horiz-adv-x="1000" />

<glyph glyph-name="heart-shaped-necklace" unicode="&#xe817;" d="M860 491c0 165-113 309-273 348-11 3-21-3-24-14-2-10 4-21 15-24 142-35 242-163 242-310 0-177-143-321-320-321s-320 144-320 321c0 147 100 275 243 310 10 3 16 14 14 24-3 11-13 17-24 14-160-39-272-183-272-348 0-192 150-349 339-359v-34c-11 5-23 9-36 9-39 0-74-29-84-69-5-21-6-54 19-92 22-35 60-66 112-94 3-1 6-2 9-2 3 0 6 1 9 2 52 28 90 59 112 93 25 39 24 72 19 93-10 40-45 69-84 69-13 0-25-4-36-10v35c189 10 340 167 340 359z m-258-462c4-17 8-76-102-137-110 61-106 120-101 137 5 22 24 38 45 38 15 0 29-9 39-25 4-6 10-10 17-10 7 0 13 4 17 10 10 16 24 25 39 25 21 0 40-16 46-38z m-143 780c5 0 10 2 14 5 3 4 5 9 5 14 0 5-2 10-5 14-4 4-9 6-14 6-5 0-10-2-14-6-4-4-6-9-6-14 0-5 2-10 6-14 4-3 9-5 14-5z m82 0c5 0 11 2 14 5 4 4 6 9 6 14 0 5-2 10-6 14-3 4-9 6-14 6-5 0-10-2-14-6-3-4-5-9-5-14 0-5 2-10 5-14 4-3 9-5 14-5z m-41 2c5 0 10 2 14 6 4 3 6 8 6 13 0 6-2 11-6 14-4 4-9 6-14 6-5 0-10-2-14-6-3-3-6-8-6-14 0-5 3-10 6-13 4-4 9-6 14-6z" horiz-adv-x="1000" />

<glyph glyph-name="heart-shaped-padlock" unicode="&#xe818;" d="M580 303c0 44-36 80-80 80-44 0-80-36-80-80 0-27 12-51 33-66l-26-136c-1-6 1-12 4-16 4-5 10-7 15-7h108c5 0 11 2 15 7 3 4 5 10 4 16l-26 136c21 15 33 39 33 66z m-63-38c-8-4-13-13-11-21l24-127h-60l24 127c2 8-3 17-11 21-15 7-24 21-24 38 0 22 18 41 41 41 23 0 41-19 41-41 0-17-9-31-24-38z m-246 220c-82-19-131-98-118-192 6-43 27-87 62-130 3-4 9-7 15-7 4 0 8 2 12 4 8 7 10 20 3 28-31 37-49 74-53 110-10 73 26 135 88 150 11 2 17 13 15 23-3 11-13 17-24 14z m667-102c-14 57-47 106-93 140 1 1 1 3 1 4-6 88-45 169-109 229-64 61-149 94-237 94-88 0-172-33-237-93-64-60-102-141-109-229 0-1 1-3 1-5-45-34-79-83-93-140-13-57-12-147 66-255 72-100 194-193 363-276 3-1 6-2 9-2 3 0 6 1 9 2 169 83 291 176 363 276 78 108 79 198 66 255z m-439 372c-114 0-213-77-242-187-21-4-42-11-61-20 21 149 151 263 304 263 153 0 283-114 304-263-19 9-40 17-62 21-29 108-129 186-243 186z m0-39c91 0 171-59 201-143-2 0-3 0-4 0-76 0-145-35-196-99-51 64-120 99-196 99-2 0-3 0-5 0 29 85 109 143 200 143z m1-825c-287 143-437 323-400 483 22 93 108 160 204 160 71 0 135-37 180-104 3-5 9-8 16-8l0 0c6 0 13 3 16 8 45 67 109 104 180 104 96 0 182-67 204-160 37-159-113-340-400-483z" horiz-adv-x="1000" />

<glyph glyph-name="heart-with-arrow" unicode="&#xe819;" d="M998 14c-5 10-17 14-27 9-2-1-51-26-76-40l-38 39c30 16 62 32 64 33 10 5 14 17 9 27-5 10-17 14-27 9-2-1-50-26-76-40l-90 91c45 40 82 83 110 127 71 111 69 202 55 260-13 53-43 101-84 134-41 33-90 52-140 52-68 0-131-34-178-96-47 62-109 96-178 96-42 0-84-14-121-38l-54 54 66 66c5 6 7 14 4 21s-9 12-16 13l-179 19c-6 1-12-2-16-6-4-4-7-10-6-16l19-178c1-8 6-15 13-17 2-1 5-1 7-1 5 0 10 2 14 6l66 65c4-4 30-30 51-51-35-32-60-76-72-123-14-58-16-149 55-260 66-103 179-197 338-281 3-2 6-3 9-3 3 0 6 1 9 3 76 40 142 83 197 128l93-93c-13-26-39-74-40-76-5-10-1-22 9-27 3-2 6-2 9-2 7 0 14 4 18 11 1 2 18 34 33 64l39-38c-14-25-39-74-40-76-5-10-1-22 9-27 3-1 6-2 9-2 7 0 14 4 17 11 2 2 26 49 44 83 34 18 81 42 83 44 10 4 14 17 9 26z m-843 782l-101-101-12 113 113-12z m379-452c-8 8-20 8-28 0-8-8-8-20 0-28l172-172c-47-38-106-77-178-116-397 214-378 430-363 492 22 89 100 155 185 155 63 0 120-36 161-102 4-6 10-9 17-9 7 0 13 3 17 9 41 66 98 102 161 102 85 0 163-66 185-155 12-48 26-189-155-350l-174 174z" horiz-adv-x="1000" />

<glyph glyph-name="honeymoon-luggage" unicode="&#xe81a;" d="M912 646h-215c-12 77-96 136-197 136-101 0-184-59-197-136h-215c-48 0-88-39-88-87v-481c0-48 40-88 88-88h79c8-41 45-72 89-72 44 0 80 31 89 72h310c9-41 45-72 89-72s81 31 90 72h78c49 0 88 40 88 88v481c0 48-39 87-88 87z m49-510c-55-8-98-52-107-106h-708c-8 54-52 98-107 106v364c55 9 99 52 107 107h708c9-55 52-98 107-106v-365z m-547 510c14 18 45 33 86 33 41 0 72-15 86-33h-172z m498-39c27 0 49-22 49-48v-19c-33 8-59 34-67 67h18z m-412 136c79 0 144-42 157-97h-27c-12 42-65 72-130 72-65 0-117-30-130-72h-27c13 55 78 97 157 97z m-461-184c0 26 22 48 49 48h18c-8-33-34-59-67-67v19z m49-529c-27 0-49 21-49 48v18c33-7 59-33 67-66h-18z m168-73c-22 0-41 14-48 33h96c-7-19-26-33-48-33z m488 0c-22 0-40 14-48 33h97c-8-19-27-33-49-33z m217 121c0-27-22-48-49-48h-18c8 33 34 59 67 66v-18z m-378 402c-32 0-60-13-83-38-23 25-51 38-82 38-53 0-100-39-114-94-7-28-8-74 27-128 31-49 85-94 160-134 3-1 6-2 9-2 3 0 6 1 9 2 75 40 129 85 160 134 35 54 34 100 27 128-14 55-61 94-113 94z m-83-316c-172 94-164 187-158 213 9 37 41 64 76 64 25 0 48-15 65-42 4-6 10-10 17-10 7 0 13 4 17 10 17 27 40 42 66 42 34 0 66-27 75-64 6-26 14-119-158-213z" horiz-adv-x="1000" />

<glyph glyph-name="inspection" unicode="&#xe81b;" d="M938 495c-16 0-32-6-43-18l-88-88v205c10-21 16-44 16-67h32c0 58 58 146 129 146v32c-78 0-129 51-129 129h-32c0-23-6-45-16-63v31c0 26-22 48-49 48h-710c-26 0-48-22-48-48v-904c0-26 22-48 48-48h710c27 0 49 22 49 48v316l175 176c12 11 18 27 18 43 0 35-28 62-62 62z m-100 265c15-34 42-60 78-75-33-20-60-52-76-86-16 38-44 70-78 88 33 15 59 41 76 73z m-64-862h0c0-9-7-16-16-16h-710c-8 0-16 7-16 16v904c0 9 8 16 16 16h710c9 0 16-7 16-16v-69c-22-18-50-28-80-28v-32c31 0 58-14 80-35v-281l-226-226v90h-112v-113h90l-5-5-2-2-66-153 153 66 168 168v-284z m-205 135l-54-23 23 54 31-31z m-53 156v-49h-48v49h48z m81-139l-42 42 284 284 41-42-283-284z m362 363l-56-56-41 41 55 56c6 6 13 9 21 9 17 0 30-13 30-30 0-7-3-15-9-20z m-749 131c53 0 97 43 97 96 0 54-44 97-97 97-54 0-97-43-97-97 0-53 43-96 97-96z m0 161c35 0 64-29 64-65 0-35-29-64-64-64s-65 29-65 64 29 65 65 65z m48-323h-113v-113h113v113z m-32-80h-49v48h49v-48z m-81-194h113v113h-113v-113z m32 81h49v-49h-49v49z m371 193h-112v-113h112v113z m-32-80h-48v48h48v-48z" horiz-adv-x="1000" />

<glyph glyph-name="love-letter" unicode="&#xe81c;" d="M899 461c0 0 0 0 0 1l-79 63v82c0 5-2 10-6 14l-223 223c-4 4-9 6-14 6h-377c-11 0-20-9-20-20v-305c-1-1-2-1-3-2l-75-61c0 0 0-1 0-1-22-17-35-43-35-70v-450c0-50 41-91 91-91h684c50 0 91 41 91 91v450c0 27-13 53-34 70z m-79 13l34-27-34-26v53z m-600 336h337v-203c0-11 9-20 20-20h203v-196l-280-213-280 213v419z m377-28l155-155h-155v155z m-417-308v-53l-34 26 34 27z m-73-533v450c0 10 3 20 9 29l350-266-354-234c-3 6-5 13-5 21z m735-51h-684c-6 0-11 1-16 2l358 237 358-237c-5-1-10-2-16-2z m51 51c0-8-2-15-4-21l-355 234 350 266c6-9 9-19 9-29v-450z m-271 452c24 40 23 73 18 94-10 40-44 68-83 68-21 0-41-9-57-24-16 15-36 24-57 24-38 0-73-28-83-68-5-21-6-54 19-94 22-35 59-67 112-96 2-1 6-2 9-2s7 1 10 2c52 29 90 61 112 96z m-223 84c5 22 24 38 44 38 16 0 30-9 40-26 4-6 10-10 17-10l0 0c7 0 13 4 17 10 10 17 25 26 40 26 20 0 39-16 44-38 5-17 10-76-101-140-111 64-106 123-101 140z" horiz-adv-x="1000" />

<glyph glyph-name="lovely-rainbow" unicode="&#xe81d;" d="M997 262c-11 50-52 88-101 99-12 90-55 174-122 237-75 70-172 109-275 109-101 0-199-38-273-108-68-63-111-147-123-239-49-11-89-49-100-98-7-29-6-76 35-131 36-50 98-96 183-136 2-1 5-2 7-2 3 0 6 1 8 2 85 40 146 86 183 136 41 55 41 102 34 131-10 48-48 85-94 97 17 62 74 106 140 106 66 0 123-45 141-106-46-13-83-50-93-97-7-29-6-76 34-131 37-50 98-96 183-136 3-1 5-2 8-2 2 0 5 1 7 2 85 40 147 86 183 136 41 55 42 102 35 131z m-416-8c10 43 50 74 94 74 32 0 61-16 82-46 4-5 9-8 15-8 6 0 11 3 14 8 21 30 50 46 82 46 45 0 85-31 94-74 17-73-54-157-190-223-136 66-207 150-191 223z m-353-223c-136 66-207 150-190 223 9 43 49 74 94 74 32 0 61-16 82-46 3-5 9-8 14-8 6 0 12 3 15 8 21 30 50 46 82 46 45 0 84-31 94-74 17-73-55-157-191-223z m20 307c-7-5-13-11-20-18-6 7-12 12-19 17 4 148 133 267 290 267 159 0 288-119 290-268-6-4-12-10-17-16-7 7-14 14-21 19-4 127-115 229-252 229-136 0-247-102-251-230z m251 333c181 0 333-132 361-308-13 0-25-3-36-7-13 158-154 284-325 284-170 0-311-125-324-284-12 4-24 7-36 8 28 174 180 307 360 307z m124-219c-34 31-78 48-124 48-45 0-89-17-123-48-26-24-44-55-53-88-13 0-26-3-38-6 14 98 105 175 214 175 110 0 201-77 215-175-13 4-25 6-39 6-8 33-26 64-52 88z" horiz-adv-x="1000" />

<glyph glyph-name="love-potion" unicode="&#xe81e;" d="M735 341c-39 48-92 84-152 101v176h33c10 0 19 8 19 19v78c0 10-9 19-19 19h-58l10 95c1 5-1 11-5 15-3 4-9 6-14 6h-98c-5 0-10-2-14-6-4-4-5-10-5-15l10-95h-58c-10 0-19-9-19-19v-78c0-11 9-19 19-19h33v-176c-60-17-113-53-152-101-43-54-67-121-67-189 0-167 136-302 302-302 166 0 302 135 302 302 0 68-24 135-67 189z m-207 471l-8-78h-40l-8 78h56z m-125-156v40h194v-40h-194z m37-247c8 2 14 8 15 16 0 0 0 0 0 0v193h90v-191l0 0c0-9 6-16 15-18 68-16 125-57 161-112h-442c36 55 93 96 161 112z m60-521c-145 0-264 118-264 264 0 38 8 74 23 107h482c15-33 23-69 23-107 0-146-119-264-264-264z m55 315c-21 0-40-8-55-23-15 15-34 23-55 23-38 0-71-28-81-67-5-20-6-52 18-90 22-33 58-64 109-91 3-1 6-2 9-2 3 0 6 1 9 2 51 27 87 58 109 91 24 38 23 70 18 90-10 39-43 67-81 67z m-154-76c6 22 24 38 44 38 15 0 29-9 39-25 3-6 9-9 16-9 7 0 13 3 16 9 10 16 24 25 39 25 20 0 39-16 44-38 4-16 8-73-99-133-107 60-103 117-99 133z" horiz-adv-x="1000" />

<glyph glyph-name="love-song" unicode="&#xe81f;" d="M929 134v695c0 0 0 4-2 9-5 10-17 15-28 10l-551-245c-8-4-13-12-13-20 0 0 0 0 0 0v-471c-14 10-32 16-50 16-22 0-44-9-61-26-17 17-38 26-61 26-41 0-77-30-88-73-6-22-7-58 19-100 24-37 64-72 120-102 3-2 7-3 10-3 4 0 7 1 10 3 56 30 97 65 120 102 19 29 24 56 23 76v321l510 226v-363c-15 10-32 16-50 16-23 0-44-9-61-26-17 17-39 26-61 26-41 0-78-30-89-73-6-22-7-58 20-100 23-38 64-72 120-103 3-1 6-2 10-2s7 1 10 2c56 31 96 65 120 103 18 29 23 55 23 76z m-814-89c6 24 27 41 48 41 17 0 32-10 43-28 4-7 11-11 18-11h0c8 0 14 4 18 11 11 18 27 28 43 28 22 0 42-17 48-41 5-18 10-82-109-150-119 68-113 132-109 150z m552 103c6 24 26 41 48 41 16 0 32-10 43-29 4-6 10-10 18-10h0c7 0 14 4 18 10 11 19 26 29 43 29 21 0 42-17 48-41 4-18 10-82-109-150-119 68-114 132-109 150z m-290 249v173l510 227v-173l-510-227z" horiz-adv-x="1000" />

<glyph glyph-name="love-talk" unicode="&#xe820;" d="M917 839h-720c-46 0-83-38-83-84v-650l-112-215c-4-7-3-16 3-22 4-4 9-7 15-7 2 0 4 1 6 1l261 90h630c46 0 83 38 83 84v719c0 46-37 84-83 84z m43-803c0-24-19-44-43-44h-633c-2 0-5 0-7-1l-217-75 91 175c2 2 2 6 2 9v655c0 24 20 44 44 44h720c24 0 43-20 43-44v-719z m-198 429c-11 0-22-2-33-6 15 77-19 142-72 173-50 30-123 30-176-33-35 42-84 60-133 50-61-13-108-65-117-131-7-52 2-187 241-313 3-2 6-3 9-3 3 0 7 1 9 3 18 9 35 19 51 29 30-38 76-73 135-105 3-1 6-2 9-2s7 1 9 2c71 38 121 80 151 126 33 51 32 94 25 121-13 52-58 89-108 89z m-491 48c6 49 41 88 85 97 42 9 81-11 108-55 4-5 10-9 17-9 7 0 13 4 17 9 42 68 101 66 139 43 46-28 73-91 44-164-21 20-46 31-73 31-50 0-95-37-108-89-6-25-7-63 19-110-12-7-25-14-38-21-208 113-216 225-210 268z m414-344c-159 88-152 173-146 198 8 34 37 58 69 58 23 0 45-13 60-38 4-6 10-10 17-10s13 4 17 10c16 25 37 38 60 38 32 0 61-24 69-58 6-25 13-110-146-198z" horiz-adv-x="1000" />

<glyph glyph-name="loving-home" unicode="&#xe821;" d="M941 311l-130 99c0 2 1 3 1 4v172c0 11-9 19-19 19h-118c-11 0-19-8-19-19v-56l-144 111c-7 5-17 5-23 0l-429-330c-7-5-9-13-7-21 3-8 10-13 18-13h118v-346c0-44 36-81 81-81h460c45 0 82 37 82 81v346h117c8 0 15 5 18 13 3 8 0 16-6 21z m-247 256h80v-128l-80 62v66z m80-636c0-24-20-43-44-43h-460c-24 0-44 19-44 43v356l274 207 274-207v-356z m25 384l-288 218c-6 5-16 5-22 0l-288-218h-74l373 287 373-287h-74z m-377-21c-49 0-93-35-106-87-7-27-8-70 24-122 30-47 80-90 151-129 3-1 6-2 9-2s6 1 9 2c71 39 121 82 151 129 32 52 31 95 24 122-13 52-57 87-106 87-30 0-57-12-78-36-21 24-48 36-78 36z m225-96c7-25 14-112-147-203-161 91-153 178-147 203 9 34 38 59 69 59 24 0 46-15 62-41 3-6 9-9 16-9h0c7 0 13 3 16 9 16 26 38 41 62 41 31 0 61-25 69-59z m78 447c2-2 6-3 9-3 3 0 6 1 9 3 41 22 70 47 87 75 20 31 19 58 15 75-8 32-36 55-67 55-17 0-32-6-44-17-13 11-28 17-44 17-32 0-59-23-68-55-4-17-5-44 15-75 17-28 47-53 88-75z m-66 140c4 16 17 27 31 27 11 0 20-6 27-19 4-5 10-9 17-9h0c6 0 12 4 16 9 7 13 17 19 28 19 13 0 26-11 30-27 7-25-10-64-74-102-65 38-81 77-75 102z" horiz-adv-x="1000" />

<glyph glyph-name="male-and-female-genders" unicode="&#xe822;" d="M869 798c-1 14-7 26-17 36-11 11-25 16-44 16h-137c0 0 0 0 0 0-31 0-56-26-56-57 1-31 24-54 56-55 0 0 3 0 3 0l-25-26c-40 26-86 40-135 40-66 0-128-26-175-73-37-36-60-82-69-133-85-42-139-128-139-223 0-114 78-213 188-240v-39h-43c-31 0-56-25-56-56 0-31 25-56 56-56h43v-26c0-31 25-56 56-56 31 0 57 25 57 56v26h45c31 0 57 25 57 56 0 31-26 56-57 56h-45v37c98 21 174 101 192 200 24 12 46 28 66 47 81 81 95 207 37 304l30 29v-8c0-31 25-56 56-56 31 0 56 25 56 56v143c0 1 0 1 0 2z m-458-685c-8-2-14-9-14-18v-68c0-10 7-18 17-18h63c12 0 22-9 22-21 0-12-10-21-22-21h-63c-10 0-17-8-17-18v-43c0-12-10-21-22-21-11 0-21 9-21 21v43c0 10-8 18-17 18h-61c-12 0-21 9-21 21 0 12 9 21 21 21h61c9 0 17 8 17 18v70c0 8-6 15-14 17-101 19-174 107-174 209 0 84 50 161 127 195 24 11 50 17 77 18 3 0 6 0 9 0 94 0 176-60 204-149-13-7-26-12-40-15-22 72-88 122-164 122-5 0-11 0-17-1-42-4-81-24-109-55-29-31-45-72-45-115 0-94 77-170 171-170 69 0 131 41 157 104 17 1 33 4 48 9-22-80-90-141-173-153z m-32 74c-75 0-136 61-136 136 0 37 15 70 39 95 12-34 31-64 57-90 43-42 98-68 158-72-24-42-68-69-118-69z m128 183c-34 1-66 15-89 38-14 14-25 32-32 51 55-3 102-39 121-89z m-111 201c6 10 14 20 22 29 26 25 60 39 96 39s71-14 96-39c26-26 40-60 40-96 0-36-13-69-38-95-34 92-118 155-216 162z m438 82c0-12-9-21-21-21-12 0-21 9-21 21v50c0 7-5 14-11 16-7 3-14 2-19-3l-70-70c-5-5-6-15-2-22 58-84 48-198-25-271-40-40-94-62-151-62-57 0-110 22-150 62-25 25-43 55-53 88 12 7 25 12 39 15 8-27 23-53 44-73 30-31 74-49 120-49h0c46 0 90 18 121 49 32 32 50 75 50 121 0 45-18 88-50 120-32 33-75 50-121 50-45 0-88-17-120-49-16-16-28-34-37-55-16-1-32-4-48-9 10 35 28 67 55 93 40 41 93 63 150 63 46 0 90-14 126-41 7-6 17-5 23 1l66 66c5 5 7 13 4 20-3 6-9 10-16 10l-45 0c-13 0-22 9-22 20 0 12 9 22 21 22h137c12 0 17-3 20-6 4-4 6-9 6-14 0 0 0-1 0-1v-141z" horiz-adv-x="1000" />

<glyph glyph-name="marketing" unicode="&#xe823;" d="M650 701c-3 7-8 14-15 17-7 4-16 5-23 2l-127-41c-16-5-25-23-20-38l6-20-323-237-127-42c-8-2-14-8-18-15-3-7-4-15-1-23l77-238c4-13 16-21 29-21 3 0 6 0 9 1l128 42 65-1c13-62 68-109 134-109 66 0 121 47 134 108l67 0 7-20c2-8 8-14 15-18 4-2 9-3 14-3 3 0 6 1 9 2l127 41c16 5 25 22 20 38l-187 575z m-523-588l-58 181 74 24 59-180-75-25z m317-74c-32 0-59 20-71 48l142-1c-12-27-39-47-71-47z m-182 109l-32 99-32 98 293 215 90-276 45-138-364 2z m438-34l-4 11c0 0 0 0 0 0l-80 247-84 258 70 23 167-517-69-22z m52 439c5-2 9-3 14-3 11 0 22 6 27 16l54 107c8 15 2 33-13 41-15 8-33 2-41-13l-54-107c-8-15-2-33 13-41z m228-289l-107 55c-15 7-33 1-40-13-8-15-2-34 13-41l107-55c4-2 9-3 13-3 12 0 22 6 28 16 7 15 1 34-14 41z m-153 176c4-12 16-21 29-21 3 0 6 1 9 2l114 37c16 5 25 22 20 38-6 16-23 25-39 20l-114-37c-16-6-24-23-19-39z" horiz-adv-x="1000" />

<glyph glyph-name="money" unicode="&#xe824;" d="M802 469c0 66-53 119-119 119s-119-53-119-119 53-119 119-119c66 0 119 53 119 119z m-126-81c-3 0-5 2-5 5 0 2 0 5 0 8 0 5 0 6-5 6-7 1-14 3-21 6-5 3-5 4-4 9 1 4 2 8 3 12 2 4 3 5 7 3 7-4 15-6 23-7 5-1 10 0 14 2 9 4 10 14 3 20-2 2-5 4-8 5-8 3-16 6-23 10-12 7-20 17-19 31 1 16 10 26 25 32 6 2 6 2 6 8 0 3 0 5 0 7 1 5 1 6 6 6 1 0 3 0 5 0 10 0 10 0 10-11 0-7 0-7 7-8 6-1 11-3 16-5 3-1 4-3 3-6-1-4-2-9-4-13-1-4-3-5-6-3-8 4-17 5-26 5-2 0-4-1-6-2-8-3-9-11-3-17 3-2 7-4 11-6 7-3 14-5 20-9 20-11 26-37 11-54-5-7-12-11-19-13-4-1-5-3-5-6 0-4 0-7 0-11 0-3-2-5-5-5-3 0-7 0-11 1z m270 275h-519c-30 0-54-24-54-54v-181c8 0 16 0 24 0 8 0 15 0 22 0v122c5-1 9-1 14-1 30 0 55 24 55 55 0 4-1 9-2 13h404c0-3-1-7-1-10 0-30 25-55 56-55 3 0 6 0 9 1v-167c-3 0-6 1-9 1-31 0-56-25-56-55 0-4 1-7 1-11h-289c0-1 0-2 0-3 0-1 0-1 0-2v-41h345c30 0 54 24 54 54v280c0 30-24 54-54 54z m-891-265c30-11 70-18 112-18 22 0 43 2 63 6 11 8 25 16 43 22 17 7 38 12 60 15v30c0 0 0 1 0 1l0 0c0 0 0 1 0 1v70c0 0 0 0 0 1l0 0c0 0 0 0 0 1v69c0 1 0 1 0 2 0 16-9 39-55 56-30 11-70 18-111 18s-82-7-112-18c-45-17-55-40-55-56v-71c0 0 0-1 0-1l0 0v-71c0 0 0-1 0-1l0 0v-1-70 0c0-1 0-1 0-1l0 0v-71c0 0 0-1 0-1l0 0v-71c0-16 10-39 55-56 30-12 70-18 112-18 9 0 18 0 26 1v7 1c0 0 0 0 0 0s0 1 0 1v28c-8-1-17-1-26-1-38 0-73 5-99 15-25 9-31 19-31 21v24c5-3 11-6 18-9 30-11 70-17 112-17 9 0 18 0 26 1v9c0 0 0 0 0 0s0 0 0 0v29c-8-1-17-2-26-2-38 0-73 6-99 15-25 10-31 20-31 22v23c5-3 11-5 18-8 30-11 70-17 112-17 9 0 18 0 26 0v9c0 8 2 19 6 30-10-1-21-1-32-1-38 0-73 5-99 15-25 10-31 19-31 22v23c5-3 11-5 18-8z m13 222c26 9 61 15 99 15 37 0 72-6 98-15 25-10 31-19 31-22v0c0-4-6-13-31-22-26-10-61-15-98-15-38 0-73 5-99 15-25 10-31 19-31 22s6 12 31 22z m-31-70c5-3 11-6 18-8 30-11 70-18 112-18s81 7 111 18c7 2 13 5 19 8v-23l0 0 0 0v0c-1-3-7-12-32-22-26-9-61-15-98-15-38 0-73 6-98 15-26 10-32 20-32 22v23h0z m0-72c5-3 11-5 18-8 30-11 70-18 112-18s81 7 111 18c7 3 13 5 19 8v-23l0 0 0 0v0c-1-3-7-12-32-22-26-9-61-15-98-15-38 0-73 6-98 15-26 10-32 20-32 22v23h0z m471-104c-30 11-69 17-111 17s-82-6-111-17c-46-17-56-40-56-56v-71c0-1 0-1 0-1l0 0v-71c0 0 0-1 0-1l0 0v-1-70-1c0-16 10-39 56-56 29-11 69-17 111-17s81 6 111 17c46 17 55 40 55 56v1l0 0v70c0 0 0 1 0 1l0 0c0 0 0 1 0 1v70c0 0 0 0 0 1l0 0c0 0 0 0 0 1v69c0 1 0 1 0 2 1 16-9 39-55 56z m-210-35c27 10 62 15 99 15 37 0 72-5 98-15 25-9 31-18 32-21v-1c-1-3-7-12-32-21-26-10-61-15-98-15-38 0-73 5-99 15-25 9-31 19-31 21s6 13 31 22z m197-258c-26-10-61-15-98-15-37 0-72 5-98 15-26 10-32 19-32 22v23c5-3 12-6 19-8 30-12 69-18 111-18s81 6 111 18c7 2 13 5 19 8v-23c0-3-6-12-32-22z m32 94l0 0v0c-1-4-7-13-32-22-26-10-61-15-98-15-37 0-72 5-98 15-26 10-32 19-32 22v23c5-3 12-6 19-9 30-11 69-17 111-17s81 6 111 17c7 3 13 6 19 9l0-23 0 0z m0 72l0 0v-1c-1-3-7-12-32-21-26-10-61-15-98-15-37 0-72 5-98 15-26 10-32 19-32 22v23c5-3 12-6 19-9 30-11 69-17 111-17s81 6 111 17c7 3 13 6 19 9l0-23 0 0z" horiz-adv-x="1000" />

<glyph glyph-name="newly-married-couple" unicode="&#xe825;" d="M864 302l-57 339c0 0 0 0 0 0 0 4-2 8-5 11-4 4-9 6-15 6h-98v15c33 10 57 45 57 87 0 50-35 90-77 90-42 0-77-40-77-90 0-42 24-77 57-87v-15h-99c-5 0-10-2-14-6-2-2-4-5-5-9 0 0 0 0 0 0l-24-93v97c0 44-12 91-32 125-26 46-64 71-109 71s-82-25-108-71c-20-34-32-81-32-125v-123c0-8 4-15 11-18l-34-173c-1-1-2-3-2-4-42-63-66-146-66-235v-224c0-11 9-20 20-20h486c10 0 19 8 20 18l8 100 8-100c1-10 10-18 20-18h74c11 0 20 9 20 20v409h54c6 0 11 3 15 7 4 5 5 11 4 16z m-195-70c-10 0-19-8-20-19l-27-323h-25v204c0 34-3 68-10 100v104h164v-408h-36l-26 323c-1 11-10 19-20 19z m-55 386l35-78v-202h-65l-13 280h43z m55-25l-11 25h22l-11-25z m84-255h-64v202l35 78h42l-13-280z m-121 422c0 27 17 50 37 50 20 0 37-23 37-50s-17-50-37-50c-20 0-37 23-37 50z m-120-347l25 93 8-189c0-2 1-5 2-7v-6c-4 9-9 17-15 25-2 3-4 7-7 10l-13 74c0 0 0 0 0 0z m-36-22c-12 10-25 17-38 23 3 12 9 37 24 55l14-78z m-110 156c3 0 5 0 8 1 35 10 60 6 69-11 7-11 4-27-4-34-24-22-35-57-39-76-11 3-22 4-34 4-11 0-22-1-33-4-5 19-15 54-40 76-7 7-10 23-3 34 9 17 34 21 69 11 3-1 5-1 7-1z m-33 144c0 23 15 42 33 42 19 0 34-19 34-42 0-23-15-42-34-42-18 0-33 19-33 42z m-67-44c0 63 32 156 100 156s101-93 101-156v-75c-13 13-37 25-79 20v20c30 11 52 42 52 79 0 45-33 82-74 82s-73-37-73-82c0-39 23-71 55-80v-20c-44 7-69-6-82-19v75z m4-177c16-18 22-44 25-56-14-6-27-14-40-25l15 81z m287-580h-382v204c0 81 21 156 59 213 36 54 83 84 132 84 50 0 98-30 133-84 49-76 58-183 58-213v-204z m236 429l6 136 22-136h-28z" horiz-adv-x="1000" />

<glyph glyph-name="please-do-not-disturb-sign" unicode="&#xe826;" d="M711 599c-1 126-53 187-96 216-48 33-97 35-111 35-1 0-2 0-2 0 0 0-1 0-1 0-73-4-128-33-164-87-29-43-38-92-43-121l-1-6c-8-38-5-67 10-87 17-23 46-27 55-28 4-1 9-1 13-1 64 0 75 63 79 87 9 55 34 74 52 74 11 0 21-6 29-16 15-20 17-78 4-107-10-20-48-49-87-79-30-23-64-49-95-77-45-42-64-76-64-115v-392c0-25 20-45 45-45h332c25 0 45 20 45 45l0 704z m-39-704c0-3-3-5-6-5h-332c-3 0-6 2-6 5v392c0 20 7 44 52 86 30 27 63 52 92 74 47 36 85 65 99 94 17 39 18 113-8 148-16 20-38 32-61 32-34 0-78-28-91-107-7-40-18-54-40-54-3 0-5 0-8 0-14 2-23 6-28 13-7 10-9 29-3 56l1 5c10 55 32 169 170 176 0 0 1 0 1 0 8 0 49-1 89-28 51-34 78-96 79-184v-703z m-122 348c-18 0-36-7-50-20-14 13-32 20-50 20-36 0-67-26-76-63-5-19-6-49 17-84 20-31 53-59 100-83 3-2 6-3 9-3 3 0 6 1 9 3 47 24 80 52 100 83 23 35 22 65 17 84-9 37-40 63-76 63z m-138-72c5 18 21 32 38 32 13 0 24-7 33-22 4-5 10-9 17-9s13 4 17 9c9 15 20 22 33 22 17 0 33-14 38-32 3-15 7-65-88-118-95 53-91 103-88 118z" horiz-adv-x="1000" />

<glyph glyph-name="priest-at-wedding" unicode="&#xe827;" d="M611 339v50c0 11-9 20-20 20h-3v43c14 12 27 27 39 44 4 7 8 14 12 21 5-1 10-2 15-2 23 0 46 16 54 42 10 30-5 63-33 72-1 0-1 1-2 1 2 14 3 29 3 44 0 4 0 8 0 12 0 0 0 0 0 0-6 147-103 164-176 164-73 0-170-17-175-164 0 0 0 0 0 0-1-4-1-8-1-12 0-15 1-30 3-44-1 0-1-1-2-1-28-9-43-42-33-72 8-26 31-42 54-42 5 0 10 1 15 2 4-7 8-14 12-21 12-17 25-32 39-44v-43h-3c-11 0-20-9-20-20v-50c-36-5-99-19-158-59-40-28-71-63-93-106-26-51-39-112-39-182 0-8 6-16 14-19l381-122c2-1 4-1 6-1 2 0 4 0 6 1l381 122c8 3 14 11 14 19 2 281-213 336-290 347z m55 251c5-4 7-13 4-21-2-8-8-14-14-15 4 12 7 24 10 36z m-336-21c-3 8-1 17 4 21 3-12 6-24 10-36-6 1-12 7-14 15z m484-391c27-42 46-97 47-171l-47-15v186z m-444-56v174c17 3 31 5 41 6 11 1 19 10 18 21v46h20v-47c0-11 8-20 19-20h64c11 0 20 9 20 20v47h19v-46c-1-11 7-20 18-21 10-1 25-3 41-6v-174l-130-35-130 35z m118 220v27h24v-27h-24z m61 67h-97v19c15-7 31-10 48-10 17 0 33 3 49 10v-19z m72 347c-19 11-42 18-71 18-22-1-25 3-25 3-3 3-3 14-4 24 0 2 0 6-1 9 46-3 82-16 101-54z m-141 54c-1-3-1-7-1-9-1-10-1-21-4-24 0 0-3-4-25-3-29 0-52-7-71-18 19 38 55 51 101 54z m-74-292c-27 41-42 97-42 156 0 3 0 5 0 8 4 10 25 52 83 52 1 0 2 0 3 0 16 0 36 1 50 12 14-11 34-12 51-12 59 1 81-41 85-52 0-3 0-5 0-8 0-59-15-115-42-156-26-39-59-60-94-60-35 0-68 21-94 60z m-220-526l-47 15c1 74 20 129 47 171v-186z m93 147c-5-4-8-10-8-16v-159l-46 15v246c34 31 72 49 106 61v-153l-35 9c-6 2-12 0-17-3z m201-242l-169 54v146l169-46v-154z m209 54l-169-54v154l169 46v-146z m86 28l-46-15v159c0 6-3 12-8 16-5 3-11 5-17 3l-35-9v153c35-12 73-30 106-61v-246z m-321 617c4 4 6 9 6 14 0 6-2 11-6 14-3 4-8 6-14 6-5 0-10-2-14-6-3-3-5-8-5-14 0-5 2-10 5-14 4-3 9-5 14-5 6 0 11 2 14 5z m106-5c5 0 10 2 14 5 3 4 5 9 5 14 0 6-2 11-5 14-4 4-9 6-14 6-6 0-11-2-14-6-4-3-6-8-6-14 0-5 2-10 6-14 3-3 8-5 14-5z" horiz-adv-x="1000" />

<glyph glyph-name="resume" unicode="&#xe828;" d="M649 850h-541v-1000h784v757l-243 243z m9-57l177-176h-177v176z m-516-910v934h483v-234h233v-700h-716z m433 350c9 0 17 8 17 17s-8 17-17 17h-283c-9 0-17-8-17-17s8-17 17-17h283z m167 117h-117c-9 0-17-7-17-17s8-16 17-16h117c9 0 16 7 16 16s-7 17-16 17z m-384-17c0-9 8-16 17-16h167c9 0 16 7 16 16s-7 17-16 17h-167c-9 0-17-7-17-17z m-78 12c-3-3-5-7-5-12 0-4 2-8 5-11 3-3 7-5 12-5s8 2 12 5c3 3 4 7 4 11 0 5-1 9-4 12-7 6-18 6-24 0z m367-83c-3-3-5-7-5-12 0-4 1-9 5-12 3-3 7-5 11-5 5 0 9 2 12 5 3 3 5 8 5 12 0 4-2 9-5 12-6 6-17 6-23 0z m83 0c-3-3-5-7-5-12 0-4 2-9 5-12 3-3 7-5 12-5 4 0 8 2 12 5 3 4 4 8 4 12 0 4-1 9-4 12-7 6-18 6-24 0z m-346-81c-37-19-49-56-53-93-7 5-14 11-21 17-17 14-40-10-24-24 16-13 31-26 47-39 11-9 28-3 28 12 2 36 3 79 40 98 19 10 2 39-17 29z m224-66c-25 1-60-36-79-3-4 8-15 11-23 6-23-14-54-35-79-8-15 16-38-8-24-24 32-33 72-23 107-4 8-9 18-15 31-18 13-3 67 19 70 15 12-17 41 0 28 17-8 12-16 18-31 19z m-130 336l11 8-6 12c-5 12-13 20-24 26l-35 18c16 10 28 26 35 46 11 7 18 20 18 33v12c0 11-5 21-13 29-6 31-27 66-92 66-3 0-5-1-8-1-8 0-21 0-32 8-5 3-8 6-9 7-5 7-14 9-22 6-8-3-13-11-12-20 1-4 2-9 3-14 1-7 1-9 1-10 0 0-1-3-2-4-1-3-2-6-4-10-4-9-6-18-8-29-8-7-13-17-13-28v-12c0-13 7-26 19-33 7-20 18-36 34-46l-36-18c-10-6-18-15-23-26l-6-12 11-8c32-22 68-34 107-34 38 0 75 11 106 34z m-178 17l41 20c9 5 14 13 14 23v24l-10 4c-15 6-25 19-30 39l-3 9-8 2c-2 1-4 3-4 5v12c0 2 1 4 3 4l7 5 1 8c1 10 4 19 7 27 1 4 3 7 4 9 2 5 4 9 4 14 12-5 26-7 41-6 2 0 3 0 5 0 48 0 58-22 60-44l1-8 8-5c1 0 3-2 3-4v-12c0-2-2-4-4-5l-9-2-2-9c-5-20-15-33-30-39l-11-4v-24c0-10 6-18 14-23l40-20c-43-24-98-24-142 0z" horiz-adv-x="1000" />

<glyph glyph-name="rose-with-leaves" unicode="&#xe829;" d="M751 158c-3 5-9 9-16 10-19 2-38 2-55 2-72 0-124-15-158-45v187c5 0 9-1 14-1 58 0 110 21 143 57 30 32 44 76 40 127-4 60-21 90-36 116-6 11-12 22-17 36-24 66 24 131 25 131 5 7 6 17 0 24-5 7-14 10-22 8-3-1-24-8-53-21l-62 56c-5 4-12 6-19 4-93-24-136-51-151-62-4 1-45 16-55 19-18 5-22 6-30 2-5-2-9-8-10-14-2-6 0-13 5-17 0-1 46-51 23-115-2-8-6-16-10-26-14-33-34-79-34-141-1-50 15-91 47-122 51-51 125-59 162-60v-126c-33 33-87 50-162 50-17 0-36-1-55-3-7-1-13-4-16-10-3-6-3-13 0-19 53-109 114-165 180-165 0 0 0 0 0 0 21 0 40 7 53 14v-184c0-11 9-20 20-20 11 0 20 9 20 20v115c13-6 30-11 49-11 66 0 127 56 181 165 2 6 2 13-1 19z m-276-61c-8-6-24-16-46-16 0 0 0 0 0 0-44 0-88 39-130 115 7 0 14 0 21 0 68 0 116-15 139-44 17-21 17-44 16-55z m60 710l42-36c-25-13-52-29-79-48 0 1 0 1 0 1-24 17-48 31-70 42m-80-364c-23 23-35 54-35 93 0 53 17 93 31 125 5 10 9 20 12 29 14 42 8 79-3 106 30-11 71-29 112-58-39-34-73-76-89-126-28-85-11-144 8-178 5-9 10-17 16-24-18 7-37 18-52 33z m108-30c-1 1-1 1-1 1-4 2-84 52-41 186 32 98 149 163 217 193-11-32-19-74-3-119 6-17 13-30 20-42 14-25 27-48 31-99 3-40-7-73-29-97-26-27-67-43-114-43-32 0-61 7-80 20z m115-357c-22 0-38 10-46 16-1 10-1 34 16 55 23 29 71 44 139 44 7 0 14 0 21 0-42-76-86-115-130-115z" horiz-adv-x="1000" />

<glyph glyph-name="store" unicode="&#xe82a;" d="M0 444c0-58 40-107 94-121v-411h-63c-17 0-31-14-31-31s14-31 31-31h938c17 0 31 14 31 31s-14 31-31 31h-63v411c54 14 94 63 94 121v31h-1000v-31z m625-125c69 0 125 56 125 125 0-58 40-107 94-121v-411h-469v407c69 0 125 56 125 125 0-69 56-125 125-125z m-281 4v-411h-188v411c54 14 94 63 94 121 0-58 40-107 94-121z m531 433h-750l-125-250h1000l-125 250z m-611-69l-62-125c-3-6-9-9-14-9-3 0-5 1-7 2-8 4-11 13-7 21l62 125c4 7 13 11 21 7 8-4 11-13 7-21z m125 0l-62-125c-3-6-9-9-14-9-3 0-5 1-7 2-8 4-11 13-7 21l62 125c4 7 13 11 21 7 8-4 11-13 7-21z m127-118c0-9-7-16-16-16-9 0-16 7-16 16v125c0 8 7 15 16 15 9 0 16-7 16-15v-125z m179-14c-2-1-5-2-7-2-6 0-11 3-14 8l-68 125c-5 8-2 17 6 21 7 5 17 2 21-6l68-125c4-7 2-17-6-21z m125 0c-3-1-5-2-7-2-6 0-12 3-14 9l-63 125c-4 8-1 17 7 21 8 4 17 1 21-7l63-125c3-8 0-17-7-21z m-554-460v72c-9 6-16 15-16 27 0 17 14 31 31 31 18 0 32-14 32-31 0-12-7-21-16-27v-72c9-5 16-15 16-26 0-17-14-31-32-31-17 0-31 14-31 31 0 11 7 21 16 26z m-141 724c0 17 14 31 31 31h688c17 0 31-14 31-31s-14-31-31-31h-688c-17 0-31 14-31 31z m423-667l-22 22 88 88 22-22-88-88z m0-89l-22 22 176 177 23-22-177-177z m154 111l23-22-89-89-22 22 88 89z" horiz-adv-x="1000" />

<glyph glyph-name="suit-and-bow-tie" unicode="&#xe82b;" d="M500 605c-5 0-11-3-14-6-4-4-6-9-6-15 0-5 2-10 6-14 3-4 9-6 14-6 5 0 11 2 14 6 4 4 6 9 6 14 0 6-2 11-6 15-3 3-9 6-14 6z m0-148c-5 0-11-2-14-6-4-4-6-9-6-14 0-6 2-11 6-15 3-3 9-6 14-6 5 0 11 3 14 6 4 4 6 9 6 15 0 5-2 10-6 14-3 4-9 6-14 6z m0-147c-5 0-11-3-14-6-4-4-6-9-6-15 0-5 2-10 6-14 3-4 9-6 14-6 5 0 11 2 14 6 4 4 6 9 6 14 0 6-2 11-6 15-3 3-9 6-14 6z m475 397l-301 89v34c0 6-4 13-9 17-6 3-13 4-19 2 0 0-118-47-119-48-8 4-17 6-27 6-9 0-18-2-27-6-1 1-119 48-119 48-6 2-13 1-19-2-5-4-9-11-9-17v-35l-300-88c-11-3-17-14-14-25 3-11 14-17 25-14l95 28 120-292-62-47c-5-3-8-8-9-13 0-6 1-11 5-16l294-375v-83c0-11 9-20 20-20s20 9 20 20v83l294 375c4 5 5 10 5 16-1 5-4 10-8 13l-63 47 120 292 95-28c11-3 22 3 25 14 4 11-3 22-13 25z m-415 64l73 29v-124l-73 29c6 10 9 21 9 33 0 12-3 23-9 33z m-60-5c16 0 28-12 28-28 0-16-12-28-28-28-16 0-28 12-28 28 0 16 12 28 28 28z m-133 34l73-29c-6-10-9-21-9-33 0-12 3-23 9-33l-73-29v124z m-136-463l58 43c8 6 10 16 7 24l-125 303 133 39 157-703-230 294z m269-284l-129 581 100 39c1 0 1 1 2 1 9-3 18-5 27-5 10 0 19 2 27 5 1 0 2-1 2-1l100-39-129-581z m204 351c-3-8-1-18 7-24l59-43-231-294 133 595 2 7 22 101 133-39-125-303z" horiz-adv-x="1000" />

<glyph glyph-name="sweet-muffin" unicode="&#xe82c;" d="M807 442c-9 137-108 249-238 279 9 14 14 29 14 46 0 46-37 83-83 83-46 0-83-37-83-83 0-17 5-32 14-46-130-30-229-142-238-279-48-10-84-53-84-104 0-56 44-102 99-105l77-365c2-11 11-18 22-18h386c11 0 20 7 22 18l77 365c55 3 99 49 99 105 0 51-36 94-84 104z m-307 363c21 0 38-17 38-38 0-21-17-38-38-38-21 0-38 17-38 38 0 21 17 38 38 38z m175-910h-350l-71 337h492l-71-337z m110 383h-570c-33 0-61 27-61 60 0 34 28 61 61 61 13 0 23 10 23 23 0 144 118 262 262 262s262-118 262-262c0-13 10-23 23-23 33 0 61-27 61-61 0-33-28-60-61-60z m-296-337c4-2 7-2 11-2 4 0 7 0 11 2 49 26 85 56 105 89 25 38 24 69 19 90-10 39-44 67-82 67-20 0-38-7-53-21-15 14-33 21-52 21-39 0-73-28-83-67-5-21-5-52 19-90 21-33 56-63 105-89z m-80 168c5 19 21 33 39 33 12 0 24-8 33-22 4-7 11-11 19-11 8 0 15 4 19 11 9 14 21 22 34 22 17 0 33-14 38-33 7-30-13-78-91-122-78 44-98 92-91 122z" horiz-adv-x="1000" />

<glyph glyph-name="tandem-bicycle" unicode="&#xe82d;" d="M846 401c-5 0-10 0-15 0l-34 144 57 23c10 4 15 15 11 25-4 11-16 15-26 11l-72-28c-10-4-15-14-12-23l12-52-237-33-14 43h10c11 0 20 9 20 20s-9 20-20 20h-82c-11 0-20-9-20-20s9-20 20-20h30l16-48-152-21-23 69h14c10 0 19 9 19 20s-9 20-19 20h-83c-10 0-19-9-19-20s9-20 19-20h27l26-78c0-1-1-1-1-1l-55-59c-25 18-56 28-89 28-85 0-154-68-154-153 0-85 69-154 154-154 78 0 142 59 152 134h276c1 0 2 0 3 0 0 0 0 0 0 0l0 0c5 1 9 3 12 7l183 209 12-52c-58-22-99-78-99-144 0-85 69-154 153-154 85 0 154 69 154 154 0 85-69 153-154 153z m-806-153c0 63 51 114 114 114 23 0 44-7 62-19l-77-82c-5-5-7-14-3-21 3-7 10-12 18-12h112c-9-53-56-94-112-94-63 0-114 51-114 114z m159 20l46 49c10-15 18-31 21-49h-67z m107 0c-4 29-16 56-34 78l41 44 41-122h-48z m90 0l-45 136 152 21 52-157h-159z m194 19l-47 143 197 28-150-171z m142-39c0 47 29 87 70 105l25-110c2-9 10-15 19-15 2 0 3 0 5 1 11 2 17 13 15 23l-26 110c2 0 4 0 6 0 63 0 115-51 115-114s-52-114-115-114c-62 0-114 51-114 114z" horiz-adv-x="1000" />

<glyph glyph-name="teddy-bear-with-heart" unicode="&#xe82e;" d="M966 64c-21 27-59 31-79 27-33-6-66-32-80-44h-16c8 10 16 19 24 29 22 28 37 55 47 80 3-1 6-1 9-1 51 0 92 45 92 100 0 55-41 100-92 100-9 0-17-1-26-4-21 33-52 58-88 75 16 35 25 74 25 112 0 31-5 60-15 88 45 16 77 59 77 109 0 63-52 115-116 115-45 0-85-26-104-66-37 18-79 28-124 28-44 0-87-10-124-28-19 40-59 66-104 66-64 0-116-52-116-115 0-50 32-93 77-109-10-28-15-57-15-88 0-39 9-77 25-112-36-17-67-42-88-75-8 3-17 4-26 4-51 0-92-45-92-100 0-55 41-100 92-100 3 0 6 0 9 1 10-25 25-52 47-80 8-10 16-19 25-29h-17c-14 12-47 38-80 44-20 4-57 0-79-27-15-19-27-55 2-117 48-101 177-97 189-97 0 0 554 0 558 0 32 0 139 7 181 97 29 62 17 98 2 117z m-95 249c27 0 49-26 49-58 0-30-20-55-45-57 6 34 4 63-1 85-2 10-5 20-8 29 1 0 3 1 5 1z m-745-30c-5-22-7-51 0-85-26 2-46 27-46 57 0 32 22 58 49 58 2 0 4-1 5-1-3-9-6-19-8-29z m42-9c16 74 88 129 168 129 58 0 110-28 147-79 4-5 10-9 17-9 7 0 13 4 17 9 37 51 89 79 147 79 80 0 152-55 169-129 26-123-98-262-333-372-235 110-359 249-332 372z m560 533c40 0 73-32 73-72 0-33-21-61-51-70-21 39-52 73-88 98 11 26 37 44 66 44z m-228-38c132 0 239-103 239-231 0-34-8-67-23-98-17 4-34 6-52 6-63 0-120-26-164-75-43 49-101 75-164 75-18 0-35-2-52-6-15 31-23 64-23 98 0 128 107 231 239 231z m-301-34c0 40 33 72 73 72 29 0 55-18 67-44-37-25-68-59-89-98-30 9-51 37-51 70z m24-842c-1 0-111-6-148 72-15 33-18 59-7 72 9 12 28 14 36 12 25-5 56-30 66-39 4-4 9-6 15-6h69c45-39 101-76 168-111-108 0-198 0-199 0z m702 72c-36-77-147-72-148-72-1 0-91 0-199 0 67 35 123 72 168 111h69c6 0 11 2 15 6 10 9 41 34 66 39 8 2 27 0 37-12 10-13 7-39-8-72z m-425 463c67 0 122 46 122 104 0 57-55 104-122 104-67 0-122-47-122-104 0-58 55-104 122-104z m0 165c44 0 79-27 79-61 0-34-35-61-79-61-44 0-79 27-79 61 0 34 35 61 79 61z m-95 24c6 0 11 2 15 6 4 4 6 10 6 15 0 6-2 11-6 15-4 4-9 7-15 7-6 0-11-3-15-7-4-4-7-9-7-15 0-5 3-11 7-15 4-4 9-6 15-6z m196 0c5 0 11 2 15 6 4 4 6 10 6 15 0 6-2 11-6 15-4 4-10 7-15 7-6 0-12-3-16-7-4-4-6-9-6-15 0-5 2-11 6-15 4-4 10-6 16-6z" horiz-adv-x="1000" />

<glyph glyph-name="three-candles-candelabrum" unicode="&#xe82f;" d="M860 363h-39v200c0 11-8 19-19 19h-66c-11 0-20-8-20-19v-200h-39c-10 0-19-9-19-19 0-55 40-100 91-110v-59c0-24-19-43-42-43h-188v188c52 9 92 54 92 109 0 11-9 19-19 19h-40v201c0 10-8 19-19 19h-66c-11 0-19-9-19-19v-201h-40c-10 0-19-8-19-19 0-55 40-100 92-109v-188h-188c-23 0-42 19-42 43v59c52 10 91 55 91 110 0 10-8 19-19 19h-39v200c0 11-9 20-19 20h-67c-10 0-19-9-19-20v-200h-39c-11 0-19-9-19-19 0-55 39-100 91-110v-59c0-45 37-81 81-81h188v-103c-100-6-176-57-176-122 0-10 9-19 19-19h352c11 0 19 9 19 19 0 65-76 116-176 122v103h188c45 0 81 36 81 81v59c52 10 92 55 92 110 0 10-9 19-20 19z m-559-39c-8-30-36-53-70-53-33 0-61 23-69 53h139z m-84 220h28v-181h-28v181z m131-656c16 37 79 65 152 65 73 0 136-28 152-65h-304z m222 522c-9-31-37-53-70-53-33 0-61 22-70 53h140z m-84 219h28v-181h-28v181z m283-358c-34 0-62 23-70 53h140c-9-30-37-53-70-53z m-14 273h28v-181h-28v181z m-556 59c10-7 21-7 30-7h4c10 0 21 0 31 7 11 7 17 20 17 38 0 16-4 44-9 67-7 28-17 57-41 57-23 0-33-29-40-57-5-23-9-51-9-67 0-18 5-31 17-38z m32 107c6-21 12-52 12-69 0-3-1-5-1-6-2 0-19 0-21 0-1 1-1 3-1 6 0 17 5 48 11 69z m505-107c10-7 22-7 31-7h4c9 0 20 0 30 7 12 7 17 20 17 38 0 16-4 44-9 67-7 28-17 57-40 57-24 0-34-29-40-57-6-23-10-51-10-67 0-18 6-31 17-38z m33 107c6-21 11-52 11-69 0-3 0-5-1-6-2 0-19 0-21 0 0 1-1 3-1 6 0 17 6 48 12 69z m-302-22c10-6 22-6 31-6 0 0 0 0 0 0h4c9 0 21 0 31 6 11 7 17 20 17 38 0 16-4 44-10 67-7 28-17 57-40 57-23 0-33-29-40-57-6-23-10-51-10-67 0-18 6-31 17-38z m33 107c6-21 11-52 11-69 0-3 0-4 0-6-3 0-19 0-22 0 0 2 0 3 0 6 0 17 5 48 11 69z" horiz-adv-x="1000" />

<glyph glyph-name="two-hearts" unicode="&#xe830;" d="M250 683c-55-10-104-47-133-99-33-61-35-136-5-210 3-7 10-12 17-12 3 0 5 1 7 2 10 4 15 15 11 24-26 64-24 127 4 178 23 42 62 72 106 80 10 2 17 12 15 22-2 10-12 17-22 15z m258-225c-37-7-70-32-88-66-22-41-24-89-4-138 3-7 10-12 17-12 3 0 5 1 7 2 10 4 15 15 11 24-15 38-14 75 2 105 13 25 36 42 62 47 10 2 17 12 15 22-2 11-12 17-22 16z m485-73c-6 23-15 46-28 66 7 71-8 139-44 197-34 55-85 97-144 117-86 31-206 18-294-103-32 44-70 76-114 96-47 21-98 27-149 16-112-24-200-122-217-244-13-95 16-197 84-294 76-109 203-216 387-313 3-2 6-2 9-2 3 0 6 0 9 2 30 16 60 32 87 49 22-13 45-27 69-40 3-1 6-2 9-2 3 0 6 1 9 2 132 70 227 149 282 235 59 92 57 169 45 218z m-336-414c-326 176-311 354-299 405 19 73 82 127 151 127 52 0 99-30 132-84 4-5 10-9 16-9 7 0 13 4 17 9 33 54 80 84 131 84 70 0 133-54 151-127 13-51 28-229-299-405z m-174-10c-167 90-290 190-365 297-62 89-89 181-77 267 15 106 90 191 187 212 93 20 180-24 239-119 4-6 10-9 16-9 7 0 13 3 16 9 66 105 165 147 266 111 80-28 160-112 163-236-2 2-3 3-5 5-34 27-76 43-118 43-57 0-108-28-148-78-39 50-91 78-148 78-41 0-83-16-117-43-35-29-60-69-71-113-12-49-14-126 46-218 39-61 98-119 177-172-20-11-40-23-61-34z" horiz-adv-x="1000" />

<glyph glyph-name="vintage-cinema-camera-looking-left" unicode="&#xe831;" d="M979 489h-64v60c0 11-9 21-20 21h-73c29 27 46 66 46 108 0 83-67 150-149 150-40 0-78-16-106-44-9-9-17-19-23-30-26 44-75 74-130 74-40 0-77-16-105-44s-44-66-44-106c0-43 18-81 47-108h-73c-12 0-21-10-21-21v-75h-64c-12 0-21-10-21-21v-9l-148 85c-6 4-14 4-21 0-6-4-10-10-10-18v-249c0-8 4-15 10-18 4-2 7-3 11-3s7 1 10 3l148 85v-12c0-11 9-20 21-20h64v-73c0-12 9-21 21-21h207v-81c0-12 9-21 20-21h17l-139-196c-6-9-4-22 5-29 4-2 8-4 12-4 7 0 13 3 17 9l145 205v-193c0-11 9-21 21-21 11 0 20 10 20 21v193l145-205c4-6 11-9 17-9 4 0 8 2 12 4 9 7 12 20 5 29l-139 196h17c12 0 21 9 21 21v81h207c11 0 20 9 20 21v59h64c12 0 21 10 21 21v165c0 11-9 20-21 20z m-337 266c20 20 48 31 77 31 59 0 108-48 108-108 0-60-48-108-108-108h0c-60 0-109 48-109 108 0 29 12 56 32 77z m-52-153c7-12 16-23 26-32h-52c10 9 19 20 26 32z m-238 76c0 29 11 56 32 77 20 20 48 31 77 31 59 0 108-48 108-108 0-60-48-108-108-108h0c-60 0-109 48-109 108z m-88-340h-44v94h44v-94z m-85 39l-138-80v178l138-79v-19z m467-234h-113v60h113v-60z m228 101h-569v284h569v-284z m85 81h-44v123h44v-123z" horiz-adv-x="1000" />

<glyph glyph-name="wedding-arch" unicode="&#xe832;" d="M554 657c22 16 39 34 51 53 21 34 20 63 16 81-9 35-39 59-72 59-18 0-35-7-49-20-14 13-31 20-49 20-33 0-63-24-72-59-4-18-5-47 16-81 12-19 29-37 51-53-162-26-287-167-287-337v-414c0-31 34-56 77-56 43 0 76 25 76 56v371c78 21 125 67 153 109 16 23 27 46 35 67 8-21 19-44 35-67 28-42 75-88 153-109v-371c0-31 34-56 76-56s77 25 77 56v414c0 170-124 311-287 337z m-140 125c5 19 20 32 37 32 13 0 25-7 34-22 3-5 9-9 15-9h0c6 0 12 4 15 9 9 15 21 22 34 22 17 0 32-13 37-32 4-14 8-64-86-118-94 54-90 104-86 118z m-138-876c0-8-16-20-40-20-25 0-41 12-41 20v70h81v-70z m0 106h-81v106h81v-106z m0 142h-81v111c6-1 13-1 19-1 22 0 43 2 62 5v-115z m160 252c-31-45-72-76-124-92v6c0 97 73 176 167 187-5-23-17-63-43-101z m46 137c-115-9-206-105-206-223v-15c-25-4-52-6-81-5v20c0 163 127 296 287 305v-82z m206-229c-51 16-92 46-123 91-27 38-38 78-44 102 94-11 167-90 167-187v-6z m117-408c0-8-16-20-41-20-24 0-40 12-40 20v70h81v-70z m0 106h-81v106h81v-106z m0 142h-81v115c19-3 40-5 62-5 6 0 13 0 19 1v-111z m0 146c-29-1-56 1-81 5v15c0 118-91 214-206 223v82c160-9 287-142 287-305v-20z" horiz-adv-x="1000" />

<glyph glyph-name="wedding-bells" unicode="&#xe833;" d="M577 425c-9-5-12-16-8-24 5-9 16-12 25-8 47 26 105 8 131-39 3-6 9-9 16-9 3 0 5 1 8 2 9 5 12 16 8 25-35 64-116 88-180 53z m-154 0c-64 35-145 11-179-53-5-9-2-20 7-25 3-1 6-2 8-2 7 0 13 3 16 9 26 47 84 65 131 39 9-4 20-1 25 8 4 8 1 19-8 24z m576-217c-2 8-10 14-18 13-2 0-3 0-5 0-56 0-109 75-126 104l-39 73c-24 45-65 78-115 93-24 7-48 9-73 7-8 14-19 25-34 31 25 16 49 37 66 64 31 49 43 97 32 128-5 15-16 26-30 30-5 2-10 3-16 3-41 0-96-43-134-103-2-4-5-7-6-11-2 4-5 8-7 11-39 60-94 102-135 102-6 0-11 0-17-2-13-5-24-15-29-30-11-30 2-78 33-128 18-30 40-51 61-66-13-6-23-16-30-29-6 1-12 1-18 1-71 0-136-39-170-101l-39-73c-16-29-70-104-126-104-2 0-3 0-5 0-8 1-16-5-18-13-3-8 1-17 9-21l140-76c-13-42 5-90 44-111 12-7 27-11 42-11 0 0 0 0 0 0 29 0 56 14 74 36l141-77c2-1 5-2 8-2 5 0 10 2 14 7 5 6 6 16 1 22-35 46-1 136 15 166l11 20 11-19c16-31 51-121 16-167-6-6-5-16 0-22 4-5 9-7 14-7 3 0 6 1 9 2l140 77c18-22 46-36 74-36 15 0 30 4 43 11 38 21 56 69 43 111l141 76c7 4 11 13 8 21z m-479 264c2 11 9 19 19 24 9 5 20 6 30 3 5-2 11-5 15-9-12-4-23-8-34-14-12-6-22-13-31-21-1 1-2 8 1 17z m17 160c34 53 80 86 104 86 2 0 4-1 5-1 2-1 5-3 7-8 6-16-1-53-28-97-25-40-76-66-103-78-4 22-7 62 15 98z m-56-177c-9 8-19 15-30 21-11 6-23 10-35 14 4 4 10 7 15 9 11 3 21 2 30-3 10-5 16-14 19-24 2-4 2-16 1-17z m-104 157c-28 45-35 82-30 97 2 5 5 7 7 7 1 1 3 1 5 1 25 0 70-32 104-85 24-37 20-79 16-100-23 6-68 26-102 80z m-141-586c-9 0-17 2-25 6-22 12-33 37-28 61l94-51c-11-10-26-16-41-16z m188-22l-354 191c19 9 36 21 51 35l305-164c-4-20-5-42-2-62z m73 227l-40-73c-1-2-13-25-22-56l-288 156c21 25 33 48 35 50l39 72c27 51 80 83 138 83 26 0 51-7 74-19 76-41 105-137 64-213z m46-72l-22 40 8 15c34 63 29 137-7 194 13 14 28 27 45 36 37 20 79 24 119 12 40-12 73-39 93-76l40-72c1-3 13-25 34-50l-287-156c-10 31-22 54-23 57z m246-127c-7-4-16-6-25-6-15 0-30 6-41 16l94 51c5-24-6-49-28-61z m-213-28c3 20 2 42-2 62l305 164c15-14 32-26 51-35l-354-191z" horiz-adv-x="1000" />

<glyph glyph-name="wedding-cake" unicode="&#xe834;" d="M919 86h-68v238c0 10-8 18-18 18h-88v186c0 9-8 17-17 17h-93v137c0 10-8 18-18 18h-60c12 10 22 22 29 33 18 29 17 52 14 67-8 30-33 50-61 50-14 0-28-5-39-15-11 10-25 15-39 15-28 0-53-20-60-50-4-15-5-38 13-67 7-11 17-23 29-33h-60c-10 0-18-8-18-18v-137h-92c-10 0-18-8-18-18v-185h-88c-10 0-18-8-18-18v-238h-68c-10 0-18-8-18-18 0-10 8-18 18-18h159c31-44 116-67 195-74v-28l-88-66c-6-5-9-13-6-20 2-7 9-12 16-12h286c7 0 14 5 17 12 2 7-1 15-7 20l-87 66v28c78 7 163 30 194 74h159c10 0 18 8 18 18 0 10-8 18-18 18z m-518 578h198v-26h-198v26z m122-184c-10-15-14-21-23-21-9 0-13 6-23 21-7 10-15 22-28 30h102c-13-8-21-20-28-30z m76 65h-198v58h198v-58z m-309-77c2-3 4-5 6-8 10-15 24-36 52-36 29 0 43 21 53 36 2 2 3 5 5 7 4 6 8 10 11 12 3 1 5 1 7 1 9 0 14-5 23-20 11-15 25-36 53-36 29 0 43 21 53 36 0 1 1 2 2 3 3 5 6 9 9 12 4 4 7 5 12 5 8 0 13-5 23-20 10-15 24-36 53-36 28 0 42 21 52 36 2 3 4 5 6 8v-126h-420v126z m513-161c-17-7-28-19-38-29-13-13-23-23-43-23-20 0-30 10-43 23-9 10-21 22-38 29h162z m-128 173c-10-15-15-21-23-21-9 0-14 6-23 21-7 10-16 22-29 30h103c-13-8-21-20-28-30z m-275 30c-13-8-22-20-29-30-9-15-14-21-23-21-8 0-13 6-23 21-7 10-15 22-28 30h103z m-41-203c-17-7-28-19-38-29-13-13-23-23-43-23s-30 10-43 23c-10 10-21 22-38 29h162z m98-29c-10 10-21 22-38 29h162c-17-7-28-19-38-29-13-13-23-23-43-23-8 0-14 2-19 4-6 3-11 7-16 12-3 2-5 5-8 7z m-22 514c3 13 14 22 26 22 9 0 17-5 24-16 3-5 9-8 15-8h0c6 0 12 3 15 8 7 11 15 16 24 16 12 0 23-9 26-22 6-22-9-57-65-90-56 33-71 68-65 90z m113-782c0 0 0 0 0 0-10 0-18-8-18-18v-53c0-5 3-11 7-14l53-39h-179l52 39c5 3 7 9 7 14v53c0 10-8 18-18 18 0 0 0 0 0 0-73 5-128 22-159 40h414c-31-18-86-35-159-40z m267 76h-630v187c9-4 16-11 25-20 14-15 33-33 68-33 35 0 53 18 68 33 13 14 23 24 43 24 20 0 30-10 43-24 14-15 33-33 68-33 35 0 54 18 68 33 13 14 23 24 43 24 20 0 30-10 43-24 15-15 33-33 68-33s54 18 68 33c9 9 16 16 25 20v-187z m-398 393c-3-2-7-6-11-12 3 3 6 7 10 10 0 1 1 1 1 2z m138-16c3 4 6 8 9 12-3-3-6-7-9-12z" horiz-adv-x="1000" />

<glyph glyph-name="wedding-cake-1" unicode="&#xe835;" d="M945 110h-96v430c0 12-10 22-22 22h-208c10 14 16 32 16 51 0 48-39 87-87 87-26 0-50-11-66-30-16 19-40 30-66 30s-49-11-66-30c-16 19-39 30-65 30-49 0-88-39-88-87 0-19 6-37 17-51h-41c-12 0-21-10-21-22v-430h-97c-30 0-55-25-55-55 0-31 25-55 55-55h890c30 0 55 24 55 55 0 30-25 55-55 55z m-140 50v-50h-610v50h610z m0 263v-131c-9 7-16 19-25 33-18 28-39 63-84 63-45 0-67-35-84-63-16-26-27-42-47-42-19 0-30 16-46 42-18 28-39 63-84 63-45 0-67-35-84-63-16-26-27-42-47-42-19 0-30 16-47 42-14 23-31 51-62 60v38h610z m-610-87c9-8 16-19 25-34 18-28 39-63 84-63s67 35 84 63c16 26 27 42 47 42 19 0 30-16 46-42 18-28 40-63 84-63 45 0 67 35 84 63 17 26 27 42 47 42 19 0 30-16 47-42 14-23 31-50 62-60v-38h-610v132z m353 321c24 0 44-20 44-44 0-25-20-44-44-44-24 0-44 19-44 44 0 24 20 44 44 44z m-132 0c24 0 44-20 44-44 0-25-20-44-44-44-24 0-44 19-44 44 0 24 20 44 44 44z m-131 0c24 0 44-20 44-44 0-25-20-44-44-44s-44 19-44 44c0 24 19 44 44 44z m-90-139h610v-51h-610v51z m750-474h-890c-6 0-11 5-11 11 0 6 5 11 11 11h890c6 0 11-5 11-11 0-6-5-11-11-11z" horiz-adv-x="1000" />

<glyph glyph-name="wedding-day" unicode="&#xe836;" d="M914 750h-26v22c0 40-32 72-72 72-40 0-73-32-73-72v-22h-171v22c0 40-32 72-72 72-40 0-72-32-72-72v-22h-171v22c0 40-33 72-73 72-39 0-72-32-72-72v-22h-26c-47 0-86-39-86-87v-721c0-47 39-86 86-86h828c47 0 86 39 86 86v721c0 48-39 87-86 87z m43-233h-914v146c0 24 19 44 43 44h26v-78c0-40 33-72 72-72 40 0 73 32 73 72v78h171v-78c0-40 32-72 72-72 40 0 72 32 72 72v78h171v-78c0-40 33-72 73-72 40 0 72 32 72 72v78h26c24 0 43-20 43-44v-146z m-171 255c0 16 14 29 30 29 16 0 29-13 29-29v-143c0-16-13-29-29-29-16 0-30 13-30 29v143z m-315 0c0 16 13 29 29 29 16 0 29-13 29-29v-143c0-16-13-29-29-29-16 0-29 13-29 29v143z m-316 0c0 16 13 29 29 29 17 0 30-13 30-29v-143c0-16-13-29-30-29-16 0-29 13-29 29v143z m802-830c0-24-19-43-43-43h-828c-24 0-43 19-43 43v532h914v-532z m-829 383h143c12 0 21 9 21 21 0 12-9 22-21 22h-143c-12 0-22-10-22-22 0-12 10-21 22-21z m0-315h143c12 0 21 9 21 21 0 12-9 22-21 22h-143c-12 0-22-10-22-22 0-12 10-21 22-21z m0 157h143c12 0 21 10 21 22 0 11-9 21-21 21h-143c-12 0-22-10-22-21 0-12 10-22 22-22z m601 158h143c12 0 22 9 22 21 0 12-10 22-22 22h-143c-12 0-21-10-21-22 0-12 9-21 21-21z m0-315h143c12 0 22 9 22 21 0 12-10 22-22 22h-143c-12 0-21-10-21-22 0-12 9-21 21-21z m0 157h143c12 0 22 10 22 22 0 11-10 21-22 21h-143c-12 0-21-10-21-21 0-12 9-22 21-22z m-157-114h-143c-12 0-22-10-22-22 0-12 10-21 22-21h143c11 0 21 9 21 21 0 12-10 22-21 22z m-82 55c3-1 6-2 10-2 4 0 7 1 10 2 56 31 95 65 119 102 26 42 25 77 19 99-11 43-47 72-88 72-22 0-43-9-60-25-17 16-38 25-60 25-41 0-77-29-88-72-6-22-7-57 19-99 24-37 63-71 119-102z m-96 190c6 23 25 40 46 40 16 0 31-9 42-28 4-6 11-10 18-10l0 0c8 0 15 4 18 10 11 18 26 28 42 28 21 0 41-17 46-40 5-17 10-79-106-146-116 67-111 129-106 146z" horiz-adv-x="1000" />

<glyph glyph-name="wedding-dinner" unicode="&#xe837;" d="M986 722c-8 3-17 1-23-6-3-3-78-90-83-218-4-81-4-132 25-160 13-13 30-20 53-22v-319c0-11 9-21 21-21 12 0 21 10 21 21v340c0 0 0 0 0 0v366c0 8-5 16-14 19z m-28-363c-11 1-18 4-23 9-17 16-16 66-13 129 2 54 19 100 36 133v-271z m-449 327c-185 0-336-151-336-336 0-185 151-336 336-336 185 0 336 151 336 336 0 185-151 336-336 336z m0-630c-162 0-294 132-294 294 0 162 132 294 294 294 162 0 294-132 294-294 0-162-132-294-294-294z m0 532c-131 0-238-107-238-238s107-238 238-238 238 107 238 238-107 238-238 238z m0-434c-108 0-196 88-196 196s88 196 196 196 196-88 196-196-88-196-196-196z m-362 564c-12 0-21-9-21-21v-100h-21v100c0 12-9 21-21 21-12 0-21-9-21-21v-100h-21v100c0 12-9 21-21 21-11 0-21-9-21-21v-121c0-74 26-132 63-148v-425c0-12 9-21 21-21 12 0 21 9 21 21v425c37 16 63 74 63 148v121c0 12-9 21-21 21z m-63-252c-15 0-36 34-41 89h82c-5-55-26-89-41-89z" horiz-adv-x="1000" />

<glyph glyph-name="wedding-dress" unicode="&#xe838;" d="M573 484c4 21 14 58 31 78 19 22 24 57 14 86l27 70c4 9 0 19-8 23l-71 36v55c0 10-8 18-18 18h-96c-9 0-18-8-18-18v-55l-71-36c-8-4-12-14-8-23l27-70c-10-29-5-64 14-86 19-22 28-59 32-78-157-34-276-174-276-341v-146c0-10 8-18 18-18h312v-67c-1-16-15-27-31-26-12 1-23 10-26 22-2 10-12 16-21 13-10-2-16-12-14-21 7-28 30-48 58-50 2 0 4 0 5 0 19 0 35 8 47 20 12-12 29-20 47-20 1 0 3 0 5 0 28 2 51 22 58 50 2 9-4 19-13 21-10 3-20-3-22-13-3-12-14-21-26-22-16-1-29 10-31 26v67h312c10 0 18 8 18 18v146c0 167-118 307-275 341z m-103 282v48h60v-48c0-7 4-13 10-16l66-34-13-33c-17 13-46 24-93 9-47 15-76 4-93-9l-13 33 67 34c6 3 9 9 9 16z m-47-181c-11 13-14 43-1 62 15 23 47 18 70 10 3-1 6-1 8-1 3 0 5 0 8 1 23 8 55 13 71-10 12-19 9-49-2-62-25-29-36-73-40-96-12 2-24 2-37 2-12 0-25 0-37-2-4 23-15 67-40 96z m389-570h-624v128c0 112 59 211 148 266-35-49-71-133-69-269 0-10 8-18 18-18 0 0 0 0 0 0 10 0 18 9 18 19-2 112 23 202 73 260 21 25 43 39 58 47 21 5 43 7 66 7 23 0 45-2 67-7 40-21 134-93 130-307 0-10 8-19 18-19 0 0 0 0 0 0 10 0 18 8 18 18 2 136-33 220-69 269 89-55 148-154 148-266v-128z" horiz-adv-x="1000" />

<glyph glyph-name="manicure" unicode="&#xe839;" d="M971-16l-125 98-181 272 61 40c0 0 19 12 6 31-16 25-241 363-241 363-19 29-58 37-87 18l-49-32v14c0 34-28 62-62 62h-126c-34 0-62-28-62-62v-423c-61-18-105-74-105-140v-312c0-35 28-63 63-63h334c35 0 63 28 63 63v312c0 66-45 122-105 140v175l169-254c0 0 3-4 3-4 12-12 26-2 26-2 0 0 77 51 77 51l181-272 41-154c7-23 23-41 46-50 9-3 18-5 27-5 15 0 29 4 41 12 21 14 33 36 34 60 1 24-10 47-29 62z m-825 804c0 11 10 20 21 20h126c11 0 20-9 20-20v-42l-14-9c-14-9-23-23-26-40-4-16 0-33 9-47l32-48c0 0-1-1-1-2v-229h-167v417z m272-563v-312c0-12-9-21-21-21h-334c-12 0-21 9-21 21v312c0 58 46 104 104 104h168c57 0 104-46 104-104z m129 101l-230 347c-4 5-5 11-4 16 2 5 5 10 9 13l105 69c4 3 8 4 12 4 6 0 13-4 17-10l231-347-140-92z m411-402c0-11-6-21-15-27-9-6-20-7-30-3-10 4-18 12-20 22l-26 97 79-62c8-7 13-17 12-27z m-686 343c0-12 9-21 21-21 23 0 41-19 41-42v-250c0-11 10-21 21-21 12 0 21 10 21 21v250c0 46-37 84-83 84-12 0-21-10-21-21z" horiz-adv-x="1000" />

<glyph glyph-name="microphone" unicode="&#xe83a;" d="M930 775c-47 48-109 75-176 75-60 1-117-20-162-58l-4 3c-8 8-21 8-29 0-8-8-8-21 0-29l4-4c-37-43-57-96-59-152-1 0-1 0-2 0-13-1-25-7-34-17l-396-496c-15-18-14-45 3-61 3-3 3-8 0-10-13-13-20-31-20-49 0-12 3-24 9-34l-58-57c-8-9-8-22 0-30 4-4 10-6 15-6s11 2 15 6l57 58c26-16 60-12 83 11 3 2 7 2 10 0 16-17 43-19 61-4l496 397c10 8 17 20 17 33 1 1 1 2 1 3 55 2 109 22 151 58l4-3c8-8 21-8 30 0 8 8 8 21 0 29l-4 4c37 43 57 98 58 156 1 67-24 130-70 177z m-213-424l-496-397c-2-2-4-2-6 0-19 19-50 19-69 0-10-11-27-11-38 0l-2 2c0 0 0 0 0 0 0 0 0 0 0 0l-2 2c-5 5-7 12-7 19 0 7 2 14 7 19 19 19 19 50 0 69-1 2-1 4 0 6l397 496c1 1 2 1 3 2 1 0 2-1 3-2l41-40-84-105c-25-31-22-75 6-103 28-28 72-30 103-5l104 83 41-40c1-1 1-2 1-3 0-1-1-2-2-3z m-127 162c1 2 3 2 3 2 0 0 1 0 1 0 1 0 2 0 3-1l67-68c1-1 1-2 1-3 0-1 0-2-1-3l-117-94c-15-11-35-10-48 3-13 13-14 33-2 47l93 117z m148-117l-33 33c1 4 2 8 2 12 1 13-4 26-14 35l-67 67c-9 9-22 14-35 14-4-1-8-1-12-3l-33 33c-3 53 13 105 46 145l291-290c-41-33-93-50-145-46z m220 203c0-47-17-92-46-128l-290 291c37 30 83 47 132 46 55 0 107-22 146-62 39-40 59-92 58-147z m-384-196c5 0 10 2 14 6l18 17c8 9 8 22 0 30-8 8-21 8-29 0l-18-18c-8-8-8-21 0-29 4-4 9-6 15-6z" horiz-adv-x="1000" />

<glyph glyph-name="ring" unicode="&#xe83b;" d="M1000 704c0 81-65 146-146 146h-708c-81 0-146-65-146-146v-375c0-16 6-30 16-41-10-12-16-26-16-42v-250c0-81 65-146 146-146h708c81 0 146 65 146 146v250c0 16-6 30-16 42 10 11 16 25 16 41v375z m-42-708c0-58-46-104-104-104h-708c-58 0-104 46-104 104v66c6-2 13-4 21-4h875c7 0 14 2 20 4v-66z m0 125c0-12-9-21-20-21h-875c-12 0-21 9-21 21v125c0 11 9 21 21 21h132c-4-21-7-42-7-63h-21c-12 0-21-9-21-21s9-20 21-20h42c0 0 0 0 0 0h41c12 0 21 9 21 20s-9 21-21 21h-21c1 22 4 43 9 63h524c5-20 8-41 9-63h-21c-11 0-21-9-21-21s10-20 21-20h41c0 0 0 0 1 0h41c12 0 21 9 21 20s-9 21-21 21h-21c0 21-2 42-7 63h133c11 0 20-10 20-21v-125z m-458 444c-32 0-62 12-86 34l12 12c20 20 46 31 74 31s54-11 74-31l12-12c-23-22-54-34-86-34z m115 5l4-4c6-6 9-14 9-22 0-8-3-16-9-22l-97-97c0 0-1-1-1-1v101c35 4 68 19 94 45z m-136-45v-101c0 0 0 1-1 1l-97 97c-6 6-9 14-9 22s3 16 9 22l4 4c26-26 59-41 94-45z m-83-77l53-52c13-14 32-22 51-22s38 8 51 22l53 52c65-27 115-78 143-140h-494c28 62 78 113 143 140z m562-119c0-11-9-21-20-21h-145c-10 25-22 48-38 70-31 44-72 79-119 102l12 13c14 13 22 32 22 51s-8 38-22 51l-18 19c0 0 0 0 0 0 0 0 0 0 0 0l-27 27c-27 27-64 42-103 42s-76-15-103-42l-45-46c-14-13-22-32-22-51s8-38 22-51l13-13c-48-23-89-58-120-102-16-22-28-45-37-70h-145c-12 0-21 10-21 21v375c0 58 46 104 104 104h708c58 0 104-46 104-104v-375z" horiz-adv-x="1000" />

<glyph glyph-name="rings" unicode="&#xe83c;" d="M995 337c-8 52-30 99-61 140l8 3c38 14 57 56 44 93l-22 61c-13 37-40 66-76 83-35 16-75 18-111 4l-60-22c-38-13-57-55-44-93l4-9c-52-1-103-16-148-43-10-6-20-12-29-19-10 7-20 14-30 20-45 26-95 41-147 42l4 9c13 38-6 80-44 93l-60 22c-36 14-76 12-111-4-36-17-62-46-76-83l-22-61c-13-37 6-79 44-93l8-3c-32-41-53-90-62-142-10-63-1-126 25-184 36-76 98-134 177-162 78-29 163-25 239 10 20 10 38 21 55 34 17-13 35-24 55-34 42-19 87-29 132-29 36 0 72 6 107 19 79 28 141 86 177 162 27 59 35 123 24 186z m-48 222c5-16-3-34-19-40l-129-47c0 0-1 0-1 0l42 91c34-11 71-11 105 1l2-5z m-156 123c26 10 55 9 80-3 25-12 44-33 54-59l6-17c-31-10-63-8-92 6 0 0 0 0-1 0 0 0 0 0 0 0-29 13-51 37-63 67l16 6z m-60-22l5 2c13-34 36-62 67-81l-43-92c0 1 0 1 0 2l-47 129c-6 17 2 34 18 40z m-467 2l5-2c16-6 24-23 19-40l-47-129c-1-1-1-1-1-2l-42 92c30 19 53 47 66 81z m-189-42c10 26 29 47 54 59 26 12 54 13 80 3l16-6c-12-30-34-54-64-67-29-14-61-16-92-6l6 17z m-22-61l2 5c34-12 71-12 105-1l42-91c0 0-1 0-1 0l-129 47c-16 6-24 24-19 40z m374-522c-65-30-139-34-207-9-68 25-122 75-153 141-45 98-29 212 41 293l79-29c18-7 38-6 55 2 18 9 31 23 38 42l28 79c59 1 114-17 160-49-26-26-48-57-64-91-57-123-27-265 64-355-13-9-27-17-41-24z m15 362c15 31 34 59 58 81 24-22 43-50 58-81 50-108 23-233-58-312-81 79-108 204-58 312z m491-230c-31-66-85-116-153-141-68-25-141-21-207 9-14 7-28 15-41 24 91 90 121 232 64 355-16 34-38 65-64 91 46 32 101 50 160 49l28-79c7-19 20-33 38-42 18-8 37-9 56-2l78 29c70-81 87-195 41-293z" horiz-adv-x="1000" />

<glyph glyph-name="suit" unicode="&#xe83d;" d="M761 743l-166 104c-4 3-10 3-12 3h-166c-1 0-7 0-12-3l-166-104c-6-4-10-11-10-18v-479c0-12 10-21 21-21h83v-21c0-1 0-2 1-2l41-334c2-10 10-18 21-18h208c11 0 20 8 21 18l42 334c0 0 0 1 0 2v21h83c12 0 21 9 21 21v479c0 7-4 14-10 18z m-282-851h-65l-39 314v74l104 119v-507z m0 570l-104-119v236c0 12-9 21-21 21-11 0-21-9-21-21v-312h-62v62h21c11 0 21 10 21 21 0 12-10 21-21 21h-21v342l132 83 56-242c2-10 11-16 20-16v-76z m21 117h-4l-53 229h114l-53-229h-4z m125-373l-39-314h-65v507l104-119v-74z m104 61h-62v312c0 12-10 21-21 21-12 0-21-9-21-21v-236l-104 119v76c10 0 18 6 20 16l16 67h6c11 0 20 9 20 21 0 10-7 18-17 20l31 134 132-82v-343h-21c-11 0-20-9-20-21 0-11 9-21 20-21h21v-62z" horiz-adv-x="1000" />

<glyph glyph-name="table" unicode="&#xe83e;" d="M864 629c-56 73-135 128-222 157 0 16-5 32-16 44-12 13-29 20-46 20h-160c-17 0-34-7-46-20-11-12-16-28-16-44-87-29-166-84-222-157-62-81-94-177-94-279s32-198 94-279c56-73 135-128 222-157 0-16 5-32 16-44 12-13 29-20 46-20h160c17 0 34 7 46 20 11 12 16 28 16 44 87 29 166 84 222 157 62 81 94 177 94 279s-32 198-94 279z m-518-96l11-104c-9-14-13-30-13-48 0-19 6-38 18-54l-16-160c-1-12 3-24 11-32 5-6 12-10 19-12l-5-58c-111 51-183 162-183 285 0 95 42 184 117 244 9 7 10 20 3 29-7 9-20 11-29 4-85-68-133-169-133-277 0-145 88-275 221-328l-5-65c-165 58-279 216-279 393s114 335 279 393l14-165c-7-3-14-7-19-12-8-9-12-21-11-33z m59 269c4 4 10 6 15 6h160c6 0 11-2 15-6 4-5 6-10 5-16l-18-207h-164l-17 193c0 1 0 1 0 1l-1 13c-1 6 1 11 5 16z m207-264l-7-73c-13 6-27 10-42 10-24 0-46-9-63-24-17 15-39 24-62 24-16 0-30-4-43-10l-7 73h224z m-17-640c-4-4-9-6-15-6h-160c-5 0-11 2-15 6-4 5-6 10-5 16l18 207h164l17-193c0-1 0-1 0-1l1-13c1-6-1-11-5-16z m-207 265l13 130 67-56c9-8 20-12 32-12s23 4 32 12l67 56 13-130h-224z m214 187c0-1-1-1-1-1-1-1-2-2-3-3l-93-77c-3-3-7-3-10 0l-93 77c-1 1-2 2-3 3 0 0 0 0-1 1-8 8-13 19-13 31 0 29 24 52 53 52 18 0 35-9 44-25 4-6 11-10 18-10s14 4 18 10c9 16 26 25 45 25 28 0 52-23 52-52 0-12-5-23-13-31z m36-393l-14 166c7 2 14 6 19 12 8 8 12 20 11 32l-16 160c12 16 18 35 18 54 0 18-4 34-13 48l11 104c1 12-3 24-11 33-5 5-12 9-19 12l5 57c111-50 184-162 184-285 0-95-43-184-118-244-9-7-10-20-3-29 7-9 20-11 29-3 85 67 133 168 133 276 0 145-88 275-221 328l5 65c166-58 279-216 279-393s-113-335-279-393z" horiz-adv-x="1000" />

<glyph glyph-name="tag" unicode="&#xe83f;" d="M668 451l-366 122v69c0 92 75 166 167 166 62 0 117-34 146-86-7 2-14 3-21 3-46 0-84-37-84-83 0-46 38-84 84-84 46 0 83 38 83 84 0 115-93 208-208 208-115 0-209-93-209-208v-688c0-57 47-104 105-104h270c58 0 105 47 105 104v398c0 45-29 85-72 99z m-33 191c0-23-18-42-41-42s-42 19-42 42 19 41 42 41 41-18 41-41z m63-688c0-34-28-62-63-62h-270c-35 0-63 28-63 62v575l353-117c26-9 43-33 43-60v-398z m-155 281c-15 0-31-6-43-15-12 9-27 15-43 15-40 0-72-32-72-72 0-20 9-38 25-51l64-54c7-6 17-9 26-9 10 0 19 3 26 9l65 54c15 13 24 31 24 51 0 40-32 72-72 72z m21-91l-64-53-64 53c-6 5-9 12-9 19 0 17 13 30 30 30 10 0 20-5 25-14 4-7 11-10 18-10 7 0 14 3 18 10 5 9 15 14 25 14 17 0 30-13 30-30 0-7-3-14-9-19z" horiz-adv-x="1000" />

<glyph glyph-name="vinyl" unicode="&#xe840;" d="M250 350c0 65 25 126 70 173 8 8 7 22-1 30-8 8-21 7-29-1-53-55-82-126-82-202s29-147 82-202c4-4 9-6 15-6 5 0 10 2 14 6 8 7 9 21 1 29-45 47-70 108-70 173z m-104 0c0 98 39 188 109 256 8 8 9 21 1 29-8 9-21 9-30 1-78-75-122-177-122-286 0-102 39-200 110-274 4-4 10-6 15-6 5 0 11 2 15 6 8 8 8 21 0 29-63 66-98 153-98 245z m354 83c-46 0-83-37-83-83 0-46 37-83 83-83 46 0 83 37 83 83 0 46-37 83-83 83z m0-125c-23 0-42 19-42 42s19 42 42 42 42-19 42-42-19-42-42-42z m465 362c22 19 35 46 35 75 0 58-47 105-105 105-27 0-53-11-72-29-19 18-45 29-72 29-30 0-56-12-75-32-1 1-1 1-2 1-56 21-114 31-174 31-134 0-259-52-354-146s-146-220-146-354 52-259 146-354 220-146 354-146 259 52 354 146 146 220 146 354c0 100-29 196-85 279l50 41z m-214 138c22 0 43-11 54-30 4-7 11-10 18-10s14 3 18 10c11 19 32 30 54 30 35 0 63-28 63-63 0-17-7-32-20-43l-107-89c-5-4-12-4-16 0l-107 89c-13 11-20 26-20 43 0 35 28 63 63 63z m207-458c0-253-205-458-458-458s-458 205-458 458 205 458 458 458c52 0 104-8 153-26-5-11-7-24-7-37 0-29 13-56 35-75l107-89c10-9 22-13 35-13 13 0 25 4 35 13l25 21c49-75 75-162 75-252z m-238 186c-15 0-31-5-43-15-12 10-27 15-43 15-19 0-36-7-49-19-26 13-55 21-85 21-103 0-187-85-187-188 0-103 84-187 187-187 103 0 188 84 188 187 0 1 0 1 0 1 5 2 11 5 15 8l65 54c15 13 24 32 24 52 0 39-32 71-72 71z m-220-332c-80 0-146 66-146 146 0 80 66 146 146 146 22 0 45-5 64-15-1-5-1-11-1-16 0-20 8-39 24-52l58-49c1-4 1-9 1-14 0-80-66-146-146-146z m241 241l-64-53-64 53c-5 5-9 12-9 20 0 16 14 29 30 29 10 0 20-5 25-14 4-6 11-10 18-10 7 0 14 4 18 10 5 9 15 14 25 14 17 0 30-13 30-29 0-8-3-15-9-20z" horiz-adv-x="1000" />

<glyph glyph-name="violin" unicode="&#xe841;" d="M802 225v125c0 82-52 151-125 177v198h21c11 0 21 9 21 21s-10 21-21 21h-21v41h21c11 0 21 10 21 21s-10 21-21 21h-167c-11 0-21-9-21-21s10-21 21-21h21v-41h-21c-11 0-21-10-21-21s10-21 21-21h21v-198c-73-26-125-95-125-177v-125c-52-39-83-101-83-167 0-115 93-208 208-208h125c115 0 208 93 208 208 0 66-30 128-83 167z m-250 63h-21c-11 0-21-10-21-21s10-21 21-21h21v-354c-92 0-167 74-167 166 0 56 28 108 75 139 5 4 9 10 9 17v136c0 58 34 108 83 132v-194z m83-396h-41v354h41v-354z m0 396h-41v206c13 2 28 2 41 0v-206z m0 248c-6 1-13 2-20 2s-14-1-21-2v189h41v-189z m0 231h-41v41h41v-41z m42-875v354h21c11 0 21 9 21 21s-10 21-21 21h-21v194c49-24 83-74 83-132v-136c0-7 4-13 10-17 46-31 74-83 74-139 0-92-75-166-167-166z m-458 104h-21v833c0 12-9 21-21 21s-21-9-21-21v-833h-21c-11 0-20-10-20-21s9-21 20-21h21v-83c0-12 10-21 21-21s21 9 21 21v83h21c11 0 21 9 21 21s-10 21-21 21z m257 146c-9-7-12-20-5-29 6-10 8-21 6-32-2-11-9-20-18-26-10-6-12-19-6-29 4-6 11-9 18-9 4 0 8 1 11 3 19 13 31 31 36 53 4 22 0 44-13 63-6 9-19 12-29 6z m296-87c-9 6-16 15-18 26-2 11 0 22 6 32 7 9 4 22-5 29-10 6-23 3-29-6-13-19-17-41-13-63 5-22 17-40 36-53 3-2 7-3 11-3 7 0 14 3 18 9 6 10 4 23-6 29z" horiz-adv-x="1000" />

<glyph glyph-name="wedding" unicode="&#xe842;" d="M490 350h20c69 0 125 56 125 125 0 12-9 21-20 21h-21c-29 0-53 19-60 46 25 6 48 20 66 39 23 25 35 58 35 92s-12 67-35 92c-22 23-51 38-83 42-2 1-27 1-27 1-127 0-230-102-230-229s103-229 230-229z m0 417c0 0 18-1 19-1 48-4 85-44 85-93s-37-89-85-93c-1 0-10-1-11-1-32 1-59 17-76 42h16c40 0 78 18 104 49 7 9 6 22-3 29-9 8-22 7-29-2-18-22-44-34-72-34h-48c-7 0-13-4-17-9-4-5-5-12-3-18 16-56 64-95 122-98 9-47 50-82 99-84-9-36-42-62-81-62h-20c-104 0-188 84-188 187 0 104 84 188 188 188z m312-229c-7 0-13-4-17-9l-117-162c-27-37-70-59-116-59-11 0-21-9-21-20s10-21 21-21c59 0 115 28 149 76l111 152c30-5 53-31 53-62v-541h-46l-80 358c-2 12-13 19-25 16-11-2-18-13-16-25l84-375c2-9 10-16 20-16h83c12 0 21 9 21 21v562c0 58-46 105-104 105z m-188-330c-2 11-13 19-24 17-11-2-19-13-17-25l54-284c1-8-3-14-5-17-2-3-7-7-16-7h-450c-24 0-44 12-55 33-5 10-7 19-7 29 1 0 2 0 2 0 142 24 281 99 394 212 9 8 8 22 0 30-8 8-21 8-29 0-101-101-224-170-349-196l238 331c7 10 5 23-4 29-10 7-23 5-29-4l-245-341c-23-32-26-74-8-109 18-34 53-56 92-56h450c19 0 36 8 48 23 12 14 17 33 14 51l-54 284z m199 642h-53c-46 0-83-37-83-83v-52c0-75 61-136 136-136s135 61 135 136-61 135-135 135z m-53-42h53c40 0 75-26 88-62-2 0-4 0-6 0h-90c-32 0-62 15-82 40 7 13 21 22 37 22z m53-187c-52 0-94 42-94 94v18c24-19 54-29 86-29h90c4 0 7 0 11 1-5-47-45-84-93-84z" horiz-adv-x="1000" />

<glyph glyph-name="wedding-1" unicode="&#xe843;" d="M798 231c1 1 2 2 2 3 22 21 34 49 34 80v57c0 57-47 104-104 104h-59c-34 0-61-27-61-61v-99c0-29 11-55 28-76-14-4-27-12-37-24l-76-74c-1 0-1-1-2-1-4-6-11-9-18-9-8 0-15 3-19 9-1 1-1 1-2 2l-82 73c-11 12-26 19-42 20 10 21 16 45 16 70l0 48c0 29-11 57-32 77-21 21-48 32-77 32h-3c-62 0-112-50-112-112 0-51-23-100-64-132l-17-14c-11-8-15-23-10-36 4-13 16-21 30-21h43c-3-7-6-15-8-23l-56-185c-7-23-3-49 10-67 11-14 26-22 42-22h261c16 0 31 8 42 22 13 18 17 44 10 67l-50 167c-3 11-15 17-26 14-11-3-17-15-14-26l51-167c3-12 0-24-5-30-1-2-4-5-8-5h-261c-4 0-7 3-8 5-5 6-8 18-5 30l56 185c4 13 10 24 16 35h37c44 0 84 18 113 47h24c6 0 12-3 16-7 1-1 1-2 2-2l82-74c13-13 31-21 50-21 19 0 37 8 49 22l77 74c0 0 0 1 1 1 8 9 19 15 31 15h59c0 0 0 0 0 0h33c12 0 23-5 31-15s11-20 10-32l-12-106-58-29-55 27-8 66c-1 11-11 20-23 18-11-1-19-12-18-23l26-222c3-20 21-36 42-36h75c21 0 39 16 42 37l30 263c3 23-4 47-20 65-6 6-12 12-19 16z m-464 74c0-64-52-117-116-117h-4c29 23 52 55 65 92 4 11-2 23-13 26-11 4-23-1-26-12-20-56-66-95-120-104 47 40 73 98 73 160 0 39 32 71 71 71h3c18 0 35-7 48-20 12-13 19-30 19-48l0-48z m458 9l0 0c0-19-7-37-21-51-13-13-31-20-50-20-39 1-70 33-70 72v6c24-14 52-22 80-22 12 0 21 9 21 21s-9 21-21 21c-23 0-46 7-64 19-10 7-16 19-16 32v22c0 11 9 19 20 19h59c34 0 62-28 62-62v-57z m-27-422l-75-1-13 106 39-19c6-3 13-3 19 0l43 21-13-107z m-44 958c-49 0-97-13-139-37-32-19-60-43-82-72-22 29-50 53-82 72-42 24-90 37-139 37-154 0-279-125-279-280 0-63 23-124 65-171 4-5 10-7 16-7 5 0 10 1 14 5 8 8 9 21 1 29-35 40-54 91-54 144 0 132 106 238 237 238 84 0 160-43 203-115 4-6 11-10 18-10s14 4 18 10c43 72 119 115 203 115 131 0 237-106 237-238 0-53-19-104-54-144-8-8-7-21 1-29 9-8 22-7 30 2 42 47 65 108 65 171 0 155-125 280-279 280z" horiz-adv-x="1000" />

<glyph glyph-name="wedding-cake-2" unicode="&#xe844;" d="M833 329h-20v188c0 46-38 83-84 83h-41v104c0 35-28 63-63 63h-26c2 6 3 12 3 18 0 36-29 65-64 65-14 0-27-4-38-12-11 8-24 12-37 12-36 0-65-29-65-65 0-6 1-12 3-18h-26c-34 0-62-28-62-63v-104h-42c-46 0-83-37-83-83v-188h-21c-58 0-104-47-104-104v-292c0-46 37-83 83-83h708c46 0 84 37 84 83v292c0 57-47 104-105 104z m-370 479c8 0 15-4 19-11 4-6 11-10 18-10s14 4 18 10c4 7 11 11 20 11 12 0 22-10 22-23 0-5-2-11-6-14l-54-45-53 45c-5 3-7 9-7 14 0 13 10 23 23 23z m-109-104c0 12 10 21 21 21h61l40-33c6-5 15-9 24-9s18 4 24 9l40 33h61c12 0 21-9 21-21v-114c-19-5-71-11-146-11s-127 6-146 11v114z m-83-146h53c13-8 33-11 56-14 32-4 75-6 120-6s88 2 120 6c23 3 44 6 56 14h53c23 0 42-18 42-41 0-35-28-63-63-63-15 0-30 6-41 16-6 6-15 7-23 4-7-4-12-11-12-19v-1c0-34-28-62-63-62-20 0-40 10-52 28-3 6-10 9-17 9s-13-3-17-9c-12-18-31-28-52-28-35 0-63 28-63 62v1c0 8-5 15-12 19-8 3-17 2-23-4-11-10-26-16-41-16-35 0-63 28-63 63 0 23 19 41 42 41z m-42-125c18-13 39-20 63-20 14 0 27 2 40 8 14-41 53-71 99-71 26 0 50 10 69 27 19-17 44-27 69-27 46 0 85 30 99 71 13-6 26-8 40-8 24 0 45 7 63 20v-144c-4-4-25-17-82-28-52-10-119-15-189-15s-137 5-189 15c-57 11-78 24-82 28v144z m667-500c0-23-19-41-42-41h-708c-23 0-42 18-42 41v146c18-13 39-21 63-21 26 0 50 10 69 27 15-40 53-68 97-68 30 0 57 12 76 32 18-32 52-53 91-53s73 21 91 53c19-20 46-32 76-32 44 0 83 28 97 68 19-17 43-27 69-27 24 0 45 8 63 21v-146z m0 230c0-35-28-63-63-63-28 0-53 19-60 47-3 9-11 16-20 16h-3c-11 0-21-10-21-21v-21c0-35-28-63-62-63-29 0-54 20-61 47-2 9-10 16-20 16h-3c-11 0-20-9-20-21 0-34-28-62-63-62s-62 28-62 62c0 12-10 21-21 21h-3c-9 0-18-7-20-16-7-27-32-47-61-47-34 0-62 28-62 63v21c0 11-9 21-21 21h-3c-9 0-17-7-20-16-7-28-32-47-60-47-35 0-63 28-63 63v62c0 35 28 63 63 63h21c0-30 32-50 101-65 57-12 132-19 211-19s154 7 211 19c69 15 102 35 102 65h20c35 0 63-28 63-63v-62z" horiz-adv-x="1000" />

<glyph glyph-name="wedding-car" unicode="&#xe845;" d="M917 100h-137c-23 22-100 99-146 145-27 27-64 43-103 43h-73c-11 0-20-10-20-21v-167h-134l-45 75c-11 18-31 29-52 29-34 0-61-27-61-61v-43h-63c-46 0-83-37-83-83 0-46 37-84 83-84h42c0-46 37-83 83-83 46 0 84 37 84 83h416c0-46 38-83 84-83 46 0 83 37 83 83h42c46 0 83 38 83 84 0 46-37 83-83 83z m-438 146h52c28 0 54-11 74-30 33-34 82-83 116-116h-242v146z m-291-103c0 11 8 20 19 20 6 0 13-4 16-10l32-53h-67v43z m20-251c-23 0-41 18-41 41 0 5 1 10 2 14 0 0 0 0 0 0 6 16 21 28 39 28s34-12 40-28c0 0 0 0 0 0 1-4 2-9 2-14 0-23-19-41-42-41z m584 0c-23 0-42 18-42 41 0 5 1 10 2 14 0 0 0 0 1 0 5 16 21 28 39 28 18 0 33-12 39-28 0 0 0 0 0 0 2-4 2-9 2-14 0-23-18-41-41-41z m125 83h-53c-15 25-41 42-72 42s-58-17-72-42h-439c-15 25-42 42-73 42s-57-17-72-42h-53c-23 0-41 19-41 42s18 41 41 41h208c1 0 1 0 1 0h625c23 0 41-18 41-41s-18-42-41-42z m-834 325h230c23 0 41-18 41-41s-18-42-41-42c-12 0-21-9-21-21 0-11 9-21 21-21 46 0 83 38 83 84 0 46-37 83-83 83h-230c-23 0-41 19-41 42s18 41 41 41h274c50 0 93 33 107 81 9 2 17 7 24 12l60 50 63-53c9-7 21-11 32-11 12 0 23 4 32 11l93 78c20 17 31 41 31 67 0 52-42 94-93 94-15 0-29-3-41-10-11 60-63 106-126 106-34 0-67-14-91-39-24 25-57 39-91 39-71 0-128-57-128-127 0-36 16-69 43-91l136-114c4-3 9-6 13-8-10-26-36-43-64-43h-274c-46 0-83-37-83-83 0-46 37-84 83-84z m560 377c7 0 14 4 18 10 9 16 26 25 45 25 28 0 52-23 52-52 0-14-6-26-17-35l-93-78c-3-2-7-2-10 0l-93 78c-10 9-16 21-16 35 0 29 23 52 52 52 18 0 35-9 44-25 4-6 11-10 18-10z m-345-13c-17 14-27 36-27 59 0 47 38 85 86 85 30 0 57-15 73-41 4-6 11-10 18-10s14 4 18 10c15 26 43 41 73 41 40 0 74-27 83-64-12 6-27 10-41 10-52 0-94-42-94-94 0-25 10-48 28-65l-53-45c-4-3-9-4-14-4s-10 1-14 4l-136 114z" horiz-adv-x="1000" />

<glyph glyph-name="wedding-dinner-1" unicode="&#xe846;" d="M979-15h-41v750c0 12-10 21-21 21-12 0-21-9-21-21v-395h-167v125c0 34-28 62-62 62h-21v13c0 30-25 55-55 55-8 0-17-2-24-6l-67-34-67 34c-7 4-16 6-24 6-30 0-55-25-55-55v-13h-21c-34 0-62-28-62-62v-125h-167v395c0 12-9 21-21 21s-20-9-20-21v-750h-42c-12 0-21-9-21-20s9-21 21-21h958c12 0 21 9 21 21s-9 20-21 20z m-708 291c0 0 0 0 0 0-11-4-17-16-13-27 2-6 7-10 13-12v-252h-167v313h167v-22z m250 243l65 33c1 1 3 1 5 1 7 0 13-6 13-13v-57c0-8-6-13-13-13-2 0-4 0-5 1l-65 32v16z m-125-13v34c0 7 6 13 13 13 2 0 4 0 6-1l64-33v-16l-64-32c-2-1-4-1-6-1-7 0-13 5-13 13v23z m-83-41c0 11 9 20 20 20h21v-2c0-31 25-55 55-55 8 0 17 2 24 6l32 16c-28-70-79-122-152-157v172z m375-480h-63v146c0 12-9 21-21 21-11 0-21-9-21-21v-146h-62v250c0 12-9 21-21 21-11 0-21-9-21-21v-250h-62v146c0 12-10 21-21 21s-21-9-21-21v-146h-62v262c88 38 152 98 187 178 35-80 99-140 188-178v-262z m0 308h0c-74 35-125 87-153 157l32-16c7-4 16-6 24-6 30 0 55 24 55 55v2h21c11 0 21-9 21-20v-172z m208-308h-167v252c6 2 11 6 13 12 4 11-2 23-13 27 0 0 0 0 0 0v22h167v-313z" horiz-adv-x="1000" />

<glyph glyph-name="wedding-dress-1" unicode="&#xe847;" d="M874 26l-229 495c1 53 6 105 16 157l16 78c0 1 0 1 0 1 3 24-4 48-19 65-16 18-38 28-61 28-29 0-56-15-70-40l-27-44-26 43c-15 25-41 41-69 41-1 0-1 0-1 0-24 0-46-10-61-27-16-18-23-42-20-66 0 0 0 0 0-1l16-78c10-52 16-104 16-157l-229-495c-26-57-6-126 49-158 19-12 41-18 63-18h524c22 0 44 6 63 18 55 32 76 101 49 158z m-500 769c8 9 18 14 30 13 14 0 27-8 34-20l38-63-44-73c-5-9-2-22 8-28 9-6 22-3 28 7l94 158c8 12 21 19 35 19 11 0 22-4 29-13 8-9 11-20 10-31l-16-78c-9-49-15-99-16-148h-208c-1 49-7 99-16 148l-16 78c-1 11 2 22 10 31z m430-892c-13-7-27-11-42-11h-140c-127 77-222 198-268 340-4 10-15 16-26 13-11-4-17-15-14-26 43-131 125-245 234-327h-310c-15 0-29 4-42 11-36 22-50 67-32 106l225 487h17c4-110 34-218 89-313 57-99 138-181 235-239 4-2 7-3 11-3 7 0 14 3 18 10 6 10 2 22-7 28-182 109-297 306-304 517h163l225-487c18-39 4-84-32-106z" horiz-adv-x="1000" />

<glyph glyph-name="wedding-invitation-1" unicode="&#xe848;" d="M542-4h-84c-11 0-20-10-20-21 0-12 9-21 20-21h84c11 0 21 9 21 21 0 11-10 21-21 21z m41 83h-166c-12 0-21-9-21-21 0-11 9-20 21-20h166c12 0 21 9 21 20 0 12-9 21-21 21z m292 604h-771v24l667 98v-80c0-11 9-21 21-21 11 0 21 10 21 21v104c0 6-3 12-8 16-4 4-10 6-16 5l-708-104c-8-2-18-4-18-21v-854c0-12 9-21 20-21h792c35 0 63 28 63 62v709c0 34-28 62-63 62z m21-771c0-11-9-20-21-20h-771v541h250v-3c0-30 25-54 55-54 8 0 17 2 24 6l32 16c-33-82-98-141-194-174-11-4-17-16-13-27 4-10 15-16 26-12 104 35 177 100 216 188 39-88 112-153 216-188 11-4 23 2 26 12 4 11-2 23-13 27-96 33-161 92-194 174l32-16c7-4 16-6 24-6 30 0 55 24 55 54v3h250v-521z m-500 518v58c0 7 6 13 13 13 2 0 4-1 6-1l64-33v-16l-64-32c-2-1-4-1-6-1-7 0-13 5-13 12z m125 21v16l65 33c1 0 3 1 5 1 7 0 13-6 13-13v-58c0-7-6-12-13-12-2 0-4 0-5 1l-65 32z m375 24h-250v13c0 30-25 55-55 55-8 0-17-2-24-6l-67-34-67 34c-7 4-16 6-24 6-30 0-55-25-55-55v-13h-250v167h771c12 0 21-10 21-21h0v-146z" horiz-adv-x="1000" />

<glyph glyph-name="wedding-invitation-2" unicode="&#xe849;" d="M995 363c0 0 0 0 0 0 0 1 0 1 0 1l-410 448c-22 24-53 38-85 38-32 0-63-14-85-38l-270-295h-20c-23 0-42-19-42-42v-26c0 0-1-1-1-2l-76-83c-1 0-1 0-1 0 0 0 0 0 0 0 0 0 0 0 0 0-3-4-5-9-5-14v-479c0-12 9-21 21-21h958c12 0 21 9 21 21v479c0 5-2 10-5 13z m-549 421c14 16 33 24 54 24s41-8 54-24l393-430-51-34v51c0 23-19 42-42 42h-62v62c0 23-19 42-42 42h-549l245 267z m117-580c-24 0-46-9-63-24-17 15-39 24-62 24-37 0-68-21-84-51l-125 83v135h625v-79l-208-139c-15 30-47 51-83 51z m52-94c0-13-6-26-17-35l-93-77c-3-3-7-3-10 0l-93 77c-11 9-17 22-17 35 0 29 24 53 53 53 18 0 35-10 44-26 4-6 11-10 18-10s14 4 18 10c9 16 26 26 45 26 28 0 52-24 52-53z m-490 365h29c0 0 0 0 0 0h596v-62h-521c-23 0-41-19-41-42v-107l-63 42v169z m-42-87v-55l-30 21 30 34z m875-496h-916v419l302-201c0-26 11-50 31-67l93-77c9-8 20-12 32-12s23 4 32 12l93 77c20 17 31 41 31 67l302 201v-419z" horiz-adv-x="1000" />

<glyph glyph-name="wedding-invitation-3" unicode="&#xe84a;" d="M622 622l-248 24c-12 1-22-7-23-19-1-11 7-21 19-23l248-23c1 0 2 0 2 0 11 0 20 8 21 19 1 11-7 21-19 22z m-203 61l166-15c1 0 1 0 2 0 11 0 20 8 21 18 1 12-8 22-19 23l-166 16c-11 1-22-7-23-19-1-11 8-21 19-23z m347 120l-497 47c-16 1-33-4-46-14-12-11-20-26-22-43l-24-248c-3-35 22-65 57-69l120-11v-35c0-30 25-54 55-54 8 0 17 2 24 6l32 16c-33-82-98-141-194-174-11-4-17-16-13-27 4-10 16-16 27-12 87 30 152 80 194 148v-337h-93c-41 0-73-33-73-73s32-73 73-73h228c41 0 73 33 73 73s-32 73-73 73h-93v337c42-68 108-118 195-148 10-4 22 2 26 12s-2 23-13 27c-96 33-161 92-194 174l32-16c7-4 16-6 24-6 30 0 55 24 55 54v7l85-8c17-1 33 4 46 14 13 11 21 26 22 43l24 248c3 35-22 65-57 69z m-351-384c-2-1-4-1-6-1-7 0-13 5-13 12v54c0 0 0 0 0 0v4c0 7 6 13 13 13 2 0 4-1 6-1l64-33v-16l-64-32z m199-465c18 0 32-14 32-31s-14-31-32-31h-228c-18 0-32 14-32 31s14 31 32 31h228z m-10 476c0-7-6-12-13-12-2 0-4 0-5 1l-65 32v16l65 33c1 0 3 1 5 1 7 0 13-6 13-13l0-58z m177 308l-23-249c-1-5-4-10-8-14-4-3-10-5-15-4l-89 8v9c0 30-25 55-55 55-8 0-17-2-24-6l-67-34-67 34c-7 4-16 6-24 6-24 0-44-15-51-36l-120 11c-12 1-20 11-19 23l23 249c1 5 4 10 8 14 4 3 10 5 15 4l497-47c12-1 20-11 19-23z" horiz-adv-x="1000" />

<glyph glyph-name="wedding-invitation-4" unicode="&#xe84b;" d="M1000 512v46c0 35-28 63-63 63h-26l-211 211c-24 24-64 24-88 0l-211-211h-338c-35 0-63-28-63-63v-416c0-35 28-63 63-63h26l211-211c12-12 28-18 44-18 16 0 32 6 44 18l134 134c8 8 8 21 0 29-8 9-22 9-30 0l-133-133c-9-8-22-8-30 0l-182 181h790c35 0 63 28 63 63v358c0 4 0 8 0 12z m-359 290c8 8 22 8 30 0l181-181h-392l181 181z m317-660c0-12-9-21-21-21h-874c-12 0-21 9-21 21v416c0 12 9 21 21 21h346c0 0 0 0 0 0h528c12 0 21-9 21-21v-416z m-282 281c-13 0-25-3-36-8-11 54-59 96-117 96-32 0-62-13-84-35-22 22-53 35-84 35-66 0-119-53-119-119 0-33 14-64 40-85l125-104c10-9 24-14 38-14 14 0 27 5 38 14l54 45 57-48c9-7 19-11 31-11 11 0 21 4 30 11l85 71c19 16 30 39 30 64 0 48-39 88-88 88z m-178-148l-48-40c-3-3-7-4-11-4-4 0-8 1-12 4l-125 104c-16 13-25 33-25 53 0 43 35 77 78 77 27 0 52-14 66-37 4-6 11-10 18-10 7 0 14 4 18 10 14 23 39 37 66 37 35 0 64-23 74-54-11 5-24 8-36 8-49 0-88-40-88-88 0-23 9-44 25-60z m210 28l-86-71c-2-2-5-2-7 0l-71 59c0 0 0 0 0 0l-15 12c-9 8-14 19-14 32 0 25 20 46 46 46 16 0 31-8 39-22 0 0 1 0 1-1 4-6 10-10 18-10 7 0 14 4 17 10 9 14 24 23 40 23 26 0 46-21 46-46 0-13-5-24-14-32z" horiz-adv-x="1000" />

<glyph glyph-name="wedding-photos" unicode="&#xe84c;" d="M993 662c-8 15-21 26-37 31l-346 110c0 0 0 0 0 0l-1 3c-11 33-46 52-79 41l-486-154c-16-5-29-16-37-31-8-15-9-32-4-47l228-721c9-27 33-44 60-44 6 0 13 1 19 3l190 60 190-60c7-2 13-3 19-3 27 0 51 17 60 44l37 116c0 1 0 1 0 1 11 6 21 15 27 27 8 15 9 32 4 48l-4 12 164 517c5 15 4 32-4 47z m-264-756c-3-11-15-17-26-13l-134 42 188 59-28-88z m67 151c-2-5-7-8-12-10l-289-92c-1 0-1 0-2 0l-196-62c-11-4-22 2-26 13l-228 721c-2 5-1 11 1 16 3 5 7 9 12 10l487 154h0c11 4 23-2 26-13l229-721c1-5 1-11-2-16z m-133 578l172-55-77-244-95 299z m294-8l-145-460-32 100 95 301c3 10 2 22-3 31-5 10-14 18-24 21l-196 62c-1 0-3 1-4 1l-23 71 319-101c5-1 9-5 12-10 3-5 3-11 1-16z m-532-137c-17-5-31-16-41-30-16 6-34 7-51 1-19-6-35-19-45-38-9-18-11-39-5-58 7-21 22-37 42-45l86-35c5-3 10-4 16-4 4 0 9 1 13 2 10 3 18 10 23 18l50 79c12 18 15 40 8 60-6 20-19 36-37 45-19 10-40 12-59 5z m53-88l-50-78c0-1 0-1-1-1 0 0 0 0 0 0l-87 35c-8 4-15 11-17 19-3 9-2 19 2 27 4 9 12 15 21 18 3 1 7 1 10 1 9 0 17-3 24-9 5-4 13-6 20-4 7 2 12 8 14 15 3 12 12 22 23 26 9 3 19 2 27-3 9-4 15-11 18-20 2-9 1-18-4-26z m58 296c-7 22-31 34-52 27l-332-105c-10-3-19-11-24-21-5-9-6-21-3-31l155-488c5-17 22-29 39-29 5 0 9 1 13 2l331 105c11 4 19 11 25 21 5 10 6 21 2 31l-154 488z m-217-605l-154 487 178 57 153 48 155-487-332-105z" horiz-adv-x="1000" />

</font>
</defs>
</svg>
