<?xml version="1.0" standalone="no"?>
<!DOCTYPE svg PUBLIC "-//W3C//DTD SVG 1.1//EN" "http://www.w3.org/Graphics/SVG/1.1/DTD/svg11.dtd" >
<svg xmlns="http://www.w3.org/2000/svg">
<metadata>Generated by IcoMoon</metadata>
<defs>
<font id="icomoon" horiz-adv-x="1024">
<font-face units-per-em="1024" ascent="960" descent="-64" />
<missing-glyph horiz-adv-x="1024" />
<glyph unicode="&#x20;" horiz-adv-x="512" d="" />
<glyph unicode="&#xe900;" glyph-name="eye" d="M459 798.8c-131-19.8-260-102.4-377.8-241.8-39.4-46.6-81.2-102.6-81.2-109 0-3.4 27.4-42.6 45.8-66 71.4-90 137.8-154.2 209.2-202 116.2-77.8 230.6-102.8 348-75.6 113 26 234.4 110 339.8 234.6 39.4 46.6 81.2 102.6 81.2 109 0 3.4-27.4 42.6-45.8 66-136.2 171.8-270 263.8-414.4 284.8-26.2 4-79.6 3.8-104.8 0zM574 714.2c64.8-14.2 125-45 191-97.8 27.2-21.8 89.8-83.4 115.2-113.4 24.2-28.6 43.8-53.2 43.8-55s-19.6-26.4-43.8-55c-25.4-30-88-91.6-115.2-113.4-66.4-53-125.8-83.4-192-98-17-3.8-26-4.4-61-4.4s-44 0.6-61 4.4c-66.2 14.6-125.6 45-192 98-27.2 21.8-89.8 83.4-115.2 113.4-24.2 28.6-43.8 53.2-43.8 55s19.6 26.4 43.8 55c25.4 30 88 91.6 115.2 113.4 66.8 53.2 129.2 85.2 191.6 97.4 29.8 6 29.2 6 68.4 5.2 27-0.6 40.8-1.8 55-4.8zM470.6 673c-46.2-8.4-84.8-29-119.8-63.8-45.4-45.4-66.8-97.2-66.8-161.2s21.4-115.8 66.8-161.2c45.4-45.4 97.2-66.8 161.2-66.8s115.8 21.4 161.2 66.8c45.4 45.4 66.8 97.2 66.8 161.2s-21.4 115.8-66.8 161.2c-35.6 35.4-73.8 55.6-121 63.8-20.2 3.6-61.8 3.6-81.6 0zM556.6 587.4c44-14.4 80-50.4 95-94.8 4.8-14 5.2-18.6 5.2-44.6s-0.4-30.6-5.2-44.6c-15-44.4-50.6-80-95-95-14-4.8-18.6-5.2-44.6-5.2s-30.6 0.4-44.6 5.2c-44.4 15-80 50.6-95 95-4.8 14-5.2 18.6-5.2 44.6s0.4 30.6 5.2 44.6c10.4 30.8 31.8 59.2 57.6 76.4 28.8 19.2 50.6 25.4 86 24.2 20-0.4 28-1.6 40.6-5.8zM487.8 523.2c-22.2-8.6-38-22.6-47.2-42.2-5-10.8-5.6-14.2-5.6-33s0.6-22.2 5.6-33.2c7.2-15.4 22.6-30.8 38.4-38.2 10.8-5 14.2-5.6 33-5.6s22.2 0.6 33.2 5.6c15.4 7.2 30.8 22.6 38.2 38.4 5 10.8 5.6 14.2 5.6 33s-0.6 22.2-5.6 33.2c-7.2 15.4-22.6 30.8-38.4 38.2-10.2 4.6-15 5.6-31 6-12.2 0.4-21.6-0.4-26.2-2.2z" />
<glyph unicode="&#xe901;" glyph-name="share-1" d="M598 776.8v-139.2l-68.4-1.2c-54.8-0.8-73.8-1.8-94.8-5-153.4-23.8-282.8-109.6-362.2-240.2-30.8-50.4-51.4-103.6-63.2-162.2-8.4-41.4-9.6-64-9-160.4l0.6-89.4 15.8 17.4c78 86.6 143.4 138.4 229.2 182.2 75.4 38.4 148 61 235 73.2 18.8 2.6 85.4 6.8 109.4 7h7.6l0.4-139.8 0.6-139.8 212 232.6c116.6 127.8 212 233.8 212 235.4 0 2.2-354.8 393.6-417.4 460.6l-7.4 8-0.2-139.2z" />
<glyph unicode="&#xe902;" glyph-name="important-delivery" d="M202 957c-100.6-15.8-181.6-95-199-194.6-4.4-25.2-4.4-603.6 0-628.6 13.6-77.8 68.2-147 140.4-177.6 37.4-16 68.2-20.8 126.6-19.8 35 0.6 39.8 1 47 4.8 29.2 15.2 27.4 60.4-2.8 73.4-3 1.2-26 2.8-54.2 3.4-48.4 1.2-49.2 1.4-68 7.8-54.2 18.4-91.6 58.6-106.4 114.2l-4.6 17v290c0 330.2-1.4 304.4 17.6 343 8.8 18.2 12.6 23.4 28.4 39.2 20.8 21 37.6 31.6 65 41.2l19 6.6h600l19-6.6c54-18.8 91-58.2 106.4-113.4 4.4-15.8 4.4-17.8 5.4-195.2l1.2-179 5.4-8.2c7.8-11.8 20.2-17.2 36.4-16.2 16 1 27 7.6 33 20 4.2 8.8 4.2 9.6 4.2 188.2 0 168.4-0.2 180.4-3.8 198.8-19.6 100.4-99.2 176.4-200.2 191.8-27 4-590 3.8-616-0.2zM390.4 775.8c-23-11.6-29.2-43.4-12-63 12.8-14.4 6.4-13.8 128-14.4 77.6-0.4 112 0.2 118 1.8 11.4 3 24.4 16 27.6 27.8 4.6 17-2.4 36.2-16.4 45.4l-8.4 5.6-114 0.6c-113.2 0.4-114.2 0.4-122.8-3.8zM678 500.8c-21.4-5.6-40-16.4-56-32.6-14.2-14.2-21.4-25.6-113.8-180-54.2-90.6-100.8-169.6-103.6-175.4-27-59.2 0.8-135.2 60.4-163.8 27.6-13.2 23-13 246-13 178.2 0 202.8 0.4 215.6 3.2 37 8.4 68.6 33.6 84.6 67.8 9.4 19.8 12.8 35 12.8 57 0 21.4-3.4 36.8-11.2 52.6-6.6 12.8-191 323-199.4 335.4-15.6 22.6-44.8 42.6-71.6 49-16 3.8-49.2 3.6-63.8-0.2zM730 417.8c3.8-1.8 9.4-6 12.2-9.2 5.6-5.8 192.4-318.8 197-330 8.4-19.6-1.2-44.8-21-55l-10.6-5.6h-196.4c-134 0-198.6 0.8-204 2.2-4.6 1.2-11.4 5.8-17 11.4-13.4 13.6-17.6 30.4-11.2 45.4 6.2 15 197.2 330.8 203 335.6 13 11 32.4 13.2 48 5.2zM685.8 332.4c-6.2-4-10.6-9-13.6-14.8-3.8-8.2-4.2-12-4.2-52.2 0-46.4 1-52.8 10.6-63.2 6.6-7 19.2-12.2 30.6-12.2 14.2 0 26.2 6.6 33.8 19l6 9.6v45.2c0 51.2-1 55.4-15.6 67-6.8 5.4-9.4 6.2-23 6.8-14.2 0.6-16.2 0.2-24.6-5.2zM692.4 153.2c-11.8-3.8-21.4-11.6-27.8-22.8-4.8-8.2-5.6-11.4-5.6-25.4 0-17.2 2.8-25 12.8-35.6 21-22.8 63.8-19 79 7.2 3 4.8 6.2 13.8 7.4 19.8 4.2 20.8-7.2 43.8-26.6 53.8-10 5.2-28.2 6.6-39.2 3z" />
<glyph unicode="&#xe903;" glyph-name="service" d="M553 957.2c-8-3.4-16.8-12.6-20.2-20.6-1.8-4.4-2.8-14.8-2.8-31.4v-24.8l-6.4-1.4c-23.4-5-58-23.8-77.6-42.2l-10-9.2-20 11.4c-22.8 13-32.4 15.8-44.2 13.2-19.4-4.4-31.8-19.8-31.8-39.8s6.8-28.4 35.4-45.4c10.4-6 17.4-11.4 17.2-13.2-0.2-1.6-1.8-9.8-3.4-18.4-4-20.2-4-50.6 0-70.8 1.6-8.6 3.2-16.8 3.4-18.4 0.2-1.8-7-7.4-17.4-13.4-28.8-17-35.2-25-35.2-45.2 0-20.4 12.8-36 32.6-39.8 12.4-2.2 20.8 0.2 43.4 13.2l20 11.4 9.6-8.8c19.6-18.4 50.6-35.6 74.8-41.6l9.4-2.4 0.6-27.4c0.6-25.2 1-28 5.4-34.6 8.2-12 17-16.4 33-17.2 11.8-0.4 15.6 0.2 22.2 4 15.8 9.2 21 22.4 21 53.8v21l14.6 4.6c24.8 8 45.4 19.6 66.8 37.8l10.4 8.8 20.2-11.4c17.8-10.2 21.2-11.4 31.4-11.6 24.8-0.2 41.2 16.2 41.2 40.8 0 17.8-6.6 27-28.2 40-9.6 5.8-18.4 11.2-19.6 12.2-1.6 1.2-1.2 6 1.6 17.2 3 11.6 4 22.2 4 42.4s-1 30.8-4 42.4c-2.8 11.2-3.2 16-1.6 17.2 1.2 1 10 6.4 19.6 12.2 21.6 13 28.2 22.2 28.2 40 0 24.4-16.4 40.8-40.8 40.8-10.2 0-13.6-1.2-31.6-11.4l-20.4-11.6-10.4 8.8c-21.4 18.2-42 29.8-66.8 37.8l-14.6 4.6v21c0 31.6-5.2 44.6-21 53.6-9.2 5.2-28.2 6.2-38 1.8zM600.4 798c54.4-16.8 85.6-76.8 67.4-129.8-14.8-43-52.6-70.2-97.6-70.2-28.4 0-51.4 9.4-71.2 29-56.2 55.6-32.6 148 44 172.2 12.8 4 42.4 3.4 57.4-1.2zM96 460.2c-37.6-6.6-71-16.4-81.8-24-15-10.6-18.8-39-7.8-55.8 11.6-17.4 31.6-20.4 66.2-9.8 40.2 12.2 83.4 15.2 108.2 7.4 18.2-5.8 37.6-14.8 65.2-30.4 114.4-64.8 171.2-84.6 257-89.4 27.4-1.6 46.2-1 98 3 22.8 1.6 32.6-0.8 43-11.2 5.6-5.6 8.2-10.4 10-18.6 2.4-10.4 2.2-11.8-2.2-20.8-6.2-12.2-18.2-21.4-35.4-26.6-42.8-13.4-122.4-13.8-177.4-1-21.2 4.8-34.6 4-45.4-2.8-22.8-14.4-23.8-52.8-1.8-67.2 8.2-5.6 28.8-11 61.2-16.4 31.6-5.2 132.2-5.2 171 0 82.6 11.2 155.2 30.2 253.6 66.2 16.8 6.2 33.2 11.2 36.6 11.2 18 0 32.2-17.8 27.6-34.8-3.2-12-9.2-16.6-41.4-33-122.8-62-229-88.4-356.4-88.4-63.2 0-109.8 6-173 22.2-62.8 16.2-117 37-192 74.2-67.2 33.2-77.6 36.4-119 36.6-28.4 0.2-31.6-0.2-39.4-4.2-4.6-2.6-10.8-7.8-14-12-5-6.6-5.6-8.8-5.6-23.6 0-14.4 0.6-17.2 5.4-24.4 8.4-12.8 18.6-16.6 43.4-16.6 12.2 0 25.6-1.2 33-3.2 6.6-1.6 35.6-14.6 64.2-28.8 110-54.2 195.8-82 302-97.2 34.8-5 129.6-6 173-1.8 116 11 220.4 42.8 330 100.8 50 26.4 72 58.8 72 106.2 0 20.4-3.8 36.2-12.6 52.6-17.6 33-50.4 54.2-88.4 56.8-23 1.6-37-1.4-79.2-17.2-34-12.6-72.2-25.6-97-32.8l-10-3v19.4c0 10.6-1 24.2-2.6 30.2-10.8 44.2-46.6 79.2-91.4 89.2-16.2 3.6-33.4 3.4-86.6-1.2-19.8-1.6-33.8-1.6-53 0-69 5.8-113.6 21.8-209.4 75.4-42.4 23.6-65.6 34.4-90.8 42.2-22 6.8-75.4 8-107 2.6z" />
<glyph unicode="&#xe904;" glyph-name="dollar" d="M479 956.2c-33.2-9.6-60.6-32.6-75.2-62.8-5.2-10.8-8.8-22-10-30.6-4.8-32.6-5.8-36.8-9.8-42.6-4.8-6.2-6.2-7-36.6-21-23-10.6-48.8-26-67.2-39.8-23.4-17.8-31.4-19-53-8.4-19.6 9.4-34.8 13-56.8 13-34.6 0-61.4-11-85.6-35-23.8-23.4-34.8-50.2-34.8-84.6 0-22.6 3.8-38.6 13.4-57 9.4-17.8 21.4-31 41.2-45 10.8-7.6 17.4-14 20-19.2 3.8-7.4 4-9 1.8-33-3-31.4-3-55.2-0.2-82.4 3-29 0.6-34.8-21.6-50.2-19.4-13.6-31.8-27.2-41.2-45-9.6-18.4-13.4-34.4-13.4-57 0-34.2 11-61 34.8-84.8 25.6-25.6 52.6-35.8 91.2-34.4 20.2 0.8 25 1.8 39 7.4 28.6 11.8 29.8 12 38 10.2 4.2-1 11.2-4.4 15.8-8 30.8-23.2 63.6-42.6 91.2-54 23.8-9.8 29.2-16.8 31.2-40.4 2.8-34.6 13.8-59 35.6-80.6 24.2-24 51-35 85.2-35 21.8 0 37.6 3.6 56.8 13.4 19 9.6 40.2 30.6 49.6 49.6 9.2 18 11.4 26 13.6 48.8 2 19.6 6.4 30.2 14.6 36.2 2.4 1.6 12.6 6.6 22.4 11 28.4 12.8 57.8 30.6 81.4 49.2 11.2 8.8 21.6 12.6 29.8 11 3.2-0.6 11.6-3.8 18.6-7.2 7.2-3.2 18.2-7.4 24.6-9 15-4 45.8-3.8 61.4 0.2 40.8 10.6 75.6 45.2 86.2 86.2 4 15 3.8 45.8-0.2 61.4-7.2 27.8-25.8 53.6-50.8 70.2-24.6 16.4-27.6 22.6-24.2 52 2.8 23.4 2.8 53.8 0 79-3.6 32.4-0.8 38.4 24.2 55s43.6 42.4 50.8 70.2c4 15.6 4.2 46.4 0.2 61.4-10.6 41-45.4 75.6-86.2 86.2-15.8 4-46.4 4.2-61.8 0.2-6.6-1.8-18.4-6.2-26.2-10-22.6-11.2-31.2-9.8-55.4 8.6-17.8 13.6-49.6 32.2-70.4 41.2-31.2 13.8-36.2 19.2-38.2 43.6-4.8 56.6-38.8 99.2-90.2 112.4-16.4 4.2-48 4-63.6-0.6zM529.6 874.2c14.6-7.4 19.6-17 22.2-43.4 3.2-30.2 12.2-51.6 30.2-70.2 13.4-14 24.6-21.4 47.8-31.6 24.2-10.4 42.8-21.2 63.4-36.6 32.2-23.8 49.6-30.4 80.2-30.4 22.8 0 32.6 2.2 54.4 12.2 12.2 5.8 19.4 7.8 26.6 7.8 22 0 37.6-15.8 37.6-38.2 0-15.6-5.8-24.2-25.4-37.2-20.4-13.4-32.6-27-42.6-47.6-10.8-22.4-13-35-10.8-63 1.8-23.6 2-53 0.6-100-0.6-22.6-0.2-28.8 3-38 9.6-28.6 26.4-50 51.8-65.8 16.8-10.8 23.4-20.8 23.4-36 0-22.4-15.6-38.2-37.6-38.2-7 0-14.2 2-25.4 7.2-21 9.6-40 13.4-60 12-27-1.8-43.6-8.8-72.2-30-23.2-17-44.6-29.6-68.8-40.2-48.8-21.4-71.6-51.6-76.2-101.6-2-20-5.8-31.2-13-37.6-15-13-38.6-13-53.6 0-7 6.2-11 17.4-13 37.4-3.2 30.4-12.6 52.4-31 71.6-12.6 13-22.6 19.4-48 30.6-23.2 10-47.4 24.4-70 41-28.2 21-47.2 28-76.2 28-20 0.2-33.4-2.8-52.8-11.6-10.4-4.8-17.6-6.8-24.6-6.8-22 0-37.6 15.8-37.6 38.2 0 14.8 6.6 25 22.8 35.8 17 11 35 30.4 42.8 45.8 10 20 13.2 39 11.2 64-2.2 26.4-2.2 63.4 0 96.2 1.4 20.6 1.2 27.2-1.6 38-7.4 29.4-26 54.8-52.4 72-16.2 10.8-22.8 21-22.8 35.8 0 22.2 15.8 38.4 37.6 38.4 6.6 0.2 13.8-2 24.4-7 22.6-10.8 37.6-13.8 60-12.8 30 1.6 44.6 7.8 80 33.6 18 13.2 33.4 21.6 73 40.2 14 6.6 21 11.4 31.2 21.6 21.6 21.8 30.8 41.6 34 74 2.6 25.4 7.8 35 22.8 42.8 8.4 4.4 25.4 4.2 34.6-0.4zM496.6 673c-12.4-7.6-17.4-17-18.6-35.6l-1-15.8-10-3.4c-18.2-6.4-27.8-12.6-42.2-27-22.4-22.4-30.6-43-30.8-76.8 0-29.2 9.8-52.2 30.8-72.4 21.2-20.4 46.8-31 81.6-34.2 25-2.2 32.6-4.8 40.2-13.6 13.8-16.4-0.2-40.2-23.6-40.2-11.4 0-44.8 7.4-63.8 14-22 7.8-36.4 8-48.4 1-12.6-7.4-18.8-19-18.8-35s6.2-27.6 18.6-34.8c7.6-4.4 35.8-14 57-19.2l8.4-2.2v-15.2c0-18.8 5.4-29.8 18.8-37.6 12-7 30.4-7 42.4 0 13 7.6 18.8 18.8 18.8 36.8 0 11.8 0.6 14.6 3.6 15.4 35 11.4 64.8 43.8 72.4 79.2 3.4 15 1.6 47.8-3 59.6-6 15.2-20.8 35.6-32.6 45.2-20.2 16.4-39.6 24-69.4 26.8-26.8 2.6-36 5.4-44.2 13-16.6 15.8-2.4 41 23.2 41 11.6 0 35.6-5.2 55-12.2 30.2-10.6 50.6-6.4 62 13 7.4 12.8 7.2 31-0.8 43.6-6.8 10.6-16.4 16-44.6 24.6l-19.6 6v16.8c0 14.4-0.8 18.2-5 25.4-7.4 12.6-19 18.8-35.2 18.8-10 0-14.6-1-21.2-5z" />
<glyph unicode="&#xe905;" glyph-name="pharmacy" d="M466.6 955c-63.8-16.4-113.6-66.4-129.8-130.4-4.8-18.8-4.8-20.6-4.8-106.8v-87.8h-88.8c-87.4 0-89 0-107.8-4.8-64.4-16.4-114.2-66.2-130.6-130.6-6.8-27-6.8-62.2 0-89.2 16.4-64.2 66.4-114.2 130.6-130.6 18.8-4.8 20.4-4.8 107.8-4.8h88.8v-89.8c0-88.4 0-90 4.8-108.8 16.4-64.2 66.4-114.2 130.6-130.6 27-6.8 62.2-6.8 89.2 0 64.2 16.4 114.2 66.4 130.6 130.6l4.8 19.2v232l-5 8.6c-7.4 12.6-19 18.8-35 18.8s-27.6-6.2-34.8-18.6l-5-8.4-0.8-112c-0.6-95.2-1.2-113.4-3.8-121.2-10-29-29.2-51-55-63.4-15.4-7.4-15.8-7.4-40.6-7.4s-25.2 0-40.6 7.4c-32.2 15.4-53.4 45.2-57.4 80.2-1.2 9-2 61.4-2 116.2v99.8l-5 8.6c-3 5.2-8.6 10.8-13.8 13.8l-8.6 5h-98.8c-54.4 0-106.4 1-115.6 2-34.8 4-64.4 25.2-79.8 57.4-7.4 15.4-7.4 15.8-7.4 40.6s0 25.2 7.4 40.6c15.2 32 45 53.4 79.8 57.4 9.2 1 61.2 2 115.6 2h98.8l8.6 5c5.2 3 10.8 8.6 13.8 13.8l5 8.6v97.8c0 53.8 0.8 105.2 2 114.2 4 35 25.2 64.8 57.4 80.2 15.4 7.4 15.8 7.4 40.6 7.4s25.2 0 40.6-7.4c26-12.4 45-34.4 55-63.4 2.6-7.8 3.2-25.8 3.8-119.2l0.8-110 5-8.4c2.8-5 8.6-10.6 13.6-13.6l8.6-5h98.8c54.4 0 106.4-1 115.6-2 23.4-2.6 42.4-11.8 59.2-28.6 18.8-18.8 27.4-38 30-67.4 2.4-27.8 16.2-42 41-42 16 0 27.6 6.2 35 18.8 4.4 7.6 5 10.8 5 27.6 0 77.4-57.4 149-135.4 168.8-18.8 4.8-20.4 4.8-107.8 4.8h-88.8v87.8c0 86.4 0 88-4.8 106.8-16.4 64.2-66.4 114.2-130.6 130.6-26.8 6.8-63.4 6.6-90-0.2zM873 356.6c-11.8-4.2-18.8-5.2-46-6-29.2-1-32.8-1.4-40.4-5.8-12.4-7.2-18.6-18.8-18.6-34.8 0-16.2 6.2-27.6 19-35.2l9-5.2 41.6 0.8c38.6 0.8 42.6 1.2 58.4 6.4 33.6 11 44 21.6 44 45.2 0 16-6.2 27.6-18.8 35-11.2 6.6-28.4 6.4-48.2-0.4z" />
<glyph unicode="&#xe906;" glyph-name="businessman-1" d="M460.2 956.8c-109.6-18.4-201.2-110.8-219.2-220.8-3.8-24.4-3.8-67.6 0-92 18-111 110-203 221-221 24.4-3.8 67.6-3.8 92 0 111 18 203 110 221 221 3.8 24.4 3.8 67.6 0 92-18 111-110 203-221 221-23.4 3.8-70.8 3.6-93.8-0.2zM549.8 873.8c72.4-16.6 128.4-74.6 143.2-147.6 4.8-22.8 3.2-64.8-2.8-86.2-16.4-57.2-61.2-106-116.4-126.8-30.4-11.4-71-14.6-102.8-8.2-74 15.2-132.6 73.8-147.8 147.4-4.2 19.8-4.2 55.4 0 75.2 21.2 103.2 124.4 169.8 226.6 146.2zM427.6 337c-121-19.4-222.2-94.2-274.4-203-22.2-46-33-89.6-34.6-139.4-1.2-30.2-1-30.4 4.2-39.4 7.6-13 19-19.2 35.2-19.2 16 0 27.6 6.2 35 18.6 4.2 7.4 5.2 12.6 6.8 35.6 2.2 30 5.8 50.2 13.4 73.2 27.2 83.6 97.8 154.2 181.4 181.4 25.4 8.2 42.4 11.2 81 13.6 40.8 2.6 97.8 0.2 123.8-5.4 98-21.2 180.6-95.2 211.4-189.6 7.6-23 11.2-43.2 13.4-73.2 1.6-23 2.6-28.2 6.8-35.6 7.4-12.4 19-18.6 35-18.6 16.2 0 27.6 6.2 35.2 19.2 5.2 9 5.4 9.2 4.2 39.4-5.6 164.6-127 305.4-292.6 339.6-20 4.2-28 4.6-94.8 5-54.8 0.4-77.4-0.2-90.4-2.2zM385.8 202.2c-9-5.8-12.6-11.2-64.6-97-12.6-21-13.2-22.4-13.2-34.8 0-16.6 5.8-27.4 19.4-36 5.2-3.2 45.2-26.6 88.6-51.6l79-45.8h30l74 41.8c109.2 62 106.2 60 112 70 4 6.8 5 11.2 5 21.4 0 15 2.8 9.8-42.8 81.2-34 53.8-37 56.6-59.2 56.6-24.4 0-40-15.4-40-39.8 0-14.4 0.2-14.8 23.6-51.4 9.6-15.4 18.2-28.8 19-30 1-1.8-56.8-36-105.2-62.2-1.4-0.8-100.2 55.6-104 59.2-1 1 6.6 15 16.6 31.4 24.4 39.4 24 38.8 24 53 0 24.4-15.6 39.8-40.2 39.8-10.8 0-14.4-1-22-5.8z" />
<glyph unicode="&#xe907;" glyph-name="development" d="M510 958.8c-67.8-8.2-115.4-21.6-168-47.8-85.6-42.4-151.2-112.6-185.8-198.4-16.8-41.8-27.2-86.2-29.4-126.6-1.6-29.4-1.6-29.6-19-53.2-36.8-49.4-70.4-103.6-78.2-126.6-7-20-6.6-50 1-70.2 13.4-36.4 48-65.2 83.4-69.4l9.2-1 4.4-53.4c3-35 5.8-58.4 8.4-68 14.8-53 57.4-94.6 110.8-108.2 12-3 22.4-4 42.4-4 32.8 0 44.8-2.4 54.2-10.6 10.2-9 14.6-19.6 14.6-36.4 0-7.6 1-17.4 2.2-21.6 2.6-9.4 12.6-21.2 21.2-24.6 8.4-3.6 26.8-3.6 35.2 0 8.8 3.6 18.8 15.4 21.6 25.6 3.4 12.8 1.2 49.8-4 64.2-13.4 37.8-39.4 64.8-75.4 77.8-9.8 3.4-18.4 4.6-49.8 5.8-31.8 1.2-39.8 2.2-49.4 5.8-15.6 5.8-31.8 20.8-39.6 36.6-5.8 11.8-6.2 14.8-11 69.4-2.8 31.4-5.4 60.2-6.2 64-1.8 11.4-9.8 27-18.8 36.8-11 12-25.2 18.6-45 21.4-8.8 1.2-18 3.4-20.6 5-7.8 5-12.8 14.8-11.8 23.2 1.6 12.8 36 67.4 76 120.6 10.8 14.2 20.4 29.2 21.4 33 0.8 3.8 2.6 22.4 3.8 41 5.6 87.8 32.4 149.6 90 207.2 65.4 65.2 150.6 100 253.2 103.2 53.2 1.6 95.2-4.2 141.8-19.6 145-48.4 229.6-170.2 224.6-323.8-1.6-46.8-7-62.6-45-131.4-36.2-65.2-49.2-100-54.2-145.2-1.4-11.8-2.2-72-2.2-155.8v-136.8l4.6-8.8c2.4-4.8 7.8-11.6 12-14.8 7.2-5.8 8.8-6.2 24.4-6.2s17 0.4 24.4 6.2c4.2 3.4 9.4 9.2 11.6 13 3.8 6.6 4 11.4 5.2 153.8 1 143 1.2 147.4 5.4 163.6 6.6 25.2 16.8 47.8 38.8 87 43.6 77.6 54.6 109.2 57 163.4 1.8 41.4-3.8 93-15.4 137.2-37 143.4-142.8 247.2-289.8 284.8-41 10.4-58.4 12.4-119.2 13-31.8 0.4-61.2 0.2-65-0.2zM547 777.2c-8.2-3.6-18.4-15.4-20.8-24.6-1.2-4.2-2.2-16.4-2.2-27v-19.6l-5.4-1.2c-19.6-4.8-51.4-22.4-68.6-38l-7.2-6.6-17 10.4c-16.6 10.4-17 10.4-33.2 10.4-15.2 0-16.8-0.4-24-6.2-15.4-12.2-20.6-32.8-12.8-49.8 4.6-10 9.2-14.2 29.2-26.4l16-9.6-2.8-10c-3.8-13.6-3.8-64.4 0-78l2.8-10-16-9.6c-20-12.2-24.6-16.4-29.2-26.4-7.8-17-2.6-37.6 12.8-49.8 7.2-5.8 8.8-6.2 24-6.2 16.2 0 16.6 0 33.4 10.4l16.8 10.6 6.2-5.6c17.2-16 39.6-29.2 61.6-36.4l13.4-4.4v-19.2c0-23.6 2.2-32.2 10.6-41.8 8-9.2 16.4-12.6 30.4-12.6s22.4 3.4 30.4 12.6c8.4 9.6 10.6 18.2 10.6 41.6v19.2l15 5.2c19 6.4 36.4 16.2 52.6 29.4l12.6 10.2 15.4-9.6c15.2-9.4 15.8-9.6 31.8-9.6 15.2 0 16.8 0.4 24 6.2 15.4 12.2 20.6 32.8 12.8 49.8-4.2 9.6-10.8 15.6-29 26.2-9.6 5.6-13 8.6-12 10.8 2.8 7.2 6.6 34.2 6.6 48 0 13.6-3.6 40.6-6.6 48-0.8 2.2 2.8 5.4 12.2 11 18.2 10.8 24.6 16.4 28.8 26 7.8 17 2.6 37.6-12.8 49.8-7.2 5.8-8.8 6.2-24 6.2-16 0-16.6-0.2-31.8-9.6l-15.4-9.6-13.6 11c-14.2 11.6-38.2 24.6-56 30.4l-10.6 3.2v19.4c0 10.6-1 22.6-2.2 26.8-2.6 9.4-12.6 21.2-21.2 24.6-8.2 3.6-27.8 3.4-35.6 0zM592.4 624.2c41.2-14.2 67.2-56.4 60.2-97.4-7.6-43.6-43.8-75-86.6-75-45.4 0-80.2 29.2-88.2 74.6-7.8 43.6 22.2 89.2 65.6 99.4 13.8 3.2 37.2 2.4 49-1.6z" />
<glyph unicode="&#xe908;" glyph-name="video-player" d="M195.4 956.8c-95-17.2-171.8-92.8-191.2-188.2-4-19.4-4.2-26.6-4.2-190.6s0.2-171.2 4.2-190.6c17.2-84.4 77.8-152.6 160-180.2 24.8-8.2 46.8-11.2 85.4-11.2 33.8 0 35.4 0.2 43.6 5 12.6 7.4 18.8 19 18.8 35s-6.2 27.6-18.6 34.8c-7.6 4.2-11.4 4.8-40.4 5.8-39.6 1.4-56.2 5-82 17.4-34.4 16.8-56.2 38.6-73 73-17.6 36-17 29.6-17 211s-0.6 175 17 211c16.8 34.4 38.6 56.2 73 73 37.6 18.2 12.6 17 342 17h290l17.8-4.6c9.6-2.4 25.4-8.4 35-13.4 32.6-16.8 54.2-39 70.2-72 17.4-35.8 16.6-26.8 17.4-207l0.8-159 5-8.4c7.2-12.4 18.8-18.6 34.8-18.6s27.6 6.2 35 18.8l5 8.6v162.4c0 156.2-0.2 163.4-4.2 182.8-19.4 96-96.8 171.6-192.6 188.4-15.4 2.6-56.2 3-317 2.8-248.8-0.2-301.8-0.6-314.8-3zM442 745.8c-28.6-3.6-55.8-23.6-69.6-51.6l-7.4-15v-206.4l7.4-15c18.2-37 55-56.6 96.8-51.4 7.2 0.8 18 3.6 23.8 6.4 6 2.6 42 23.6 80.2 46.4 78.4 46.6 86.8 53.2 98.4 76.6 7.4 15 7.4 15.2 7.4 40.2s0 25.4-7.4 40.2c-12 24-20 30.4-98.4 76.8-87 51.6-84.2 50.4-113.2 53.8-2.8 0.2-10.8-0.2-18-1zM529 623.4l68-40.6v-13.6l-68-40.6c-72.8-43.4-77-45.2-82.4-34.6-2 3.8-2.4 23.2-2.2 84.2 0.6 85.6 0.6 85.8 11.4 85.8 3-0.2 32.4-16.4 73.2-40.6zM557.2 377c-78.6-16-142.8-72.2-168.4-147.8-14.6-42.8-14.6-99.6 0-142.4 22.2-65.6 74.4-117.8 140-140 30-10.2 37.8-10.8 153.2-10.8 87.6 0 110.8 0.6 125.2 3 17.6 3.2 50.4 13.6 73.8 23.8 9.2 3.8 15.4 5.2 26.2 5.2 16.8 0 23.6-2.4 40.6-15 21.2-15.6 24.2-17 37-17 15.2 0 27 6.4 34.2 18.8l5 8.6v110c0 118.2-0.6 125.8-10.8 155.8-11.2 33.4-30.4 63.6-55.6 88-28.2 27.6-60.6 46-101 57.2-15.4 4.4-18 4.6-150.6 5-108.4 0.2-137.8-0.2-148.8-2.4zM838 294.2c50.2-15 87-52.4 100.4-101.6 3.6-13.8 4.2-22.8 5-81l1-65.2-7.6 1.8c-11.4 2.6-46.6 2.6-60.2-0.2-6.4-1.4-22-6.8-34.8-12.2-12.6-5.2-28.4-11-35-12.8-21.6-5.8-57.2-7.4-142.8-6.6-77 0.8-84.2 1.2-98.6 5.2-63.2 17.4-105.4 72-105.4 136.4 0 72.2 53.8 132 126 140.2 7.2 0.8 63.4 1.2 125 1 109.6-0.4 112.4-0.6 127-5zM598.4 202.8c-18.6-9.4-27.4-25.6-26-48.8 1-17.4 8.4-30.2 22.4-39 9-5.4 11.4-6 27.2-6s18.2 0.6 27.2 6c6 3.8 12 9.8 15.8 15.8 5.4 9 6 11.4 6 27.2s-0.6 18.2-6 27.2c-9.2 14.8-21.8 21.6-40.8 22.4-13.2 0.6-16.6 0-25.8-4.8zM758.4 202.8c-18.6-9.4-27.4-25.6-26-48.8 1-17.4 8.4-30.2 22.4-39 9-5.4 11.4-6 27.2-6s18.2 0.6 27.2 6c6 3.8 12 9.8 15.8 15.8 5.4 9 6 11.4 6 27.2s-0.6 18.2-6 27.2c-9.2 14.8-21.8 21.6-40.8 22.4-13.2 0.6-16.6 0-25.8-4.8z" />
<glyph unicode="&#xe909;" glyph-name="binoculars" d="M392 748v-30h-143l-20.2-60.4-20-60.2-19.8-4.6c-21.6-4.8-39.8-11-57-19.8-33.2-16.6-69.2-47.8-89.6-77.6-14.6-21-29.4-53-35.8-76.8-5-18.2-5.4-22.4-5.4-60.6 0-38.4 0.4-42.2 5.6-61 24.6-89.6 95.8-156.4 187-175 24.6-5 65.6-5.4 91.4-1 85.6 15 157.6 77.4 185.6 161.2 6.4 18.8 11.2 46.4 11.2 63v12.8h60v-14.2c0-7.8 1.8-23.2 4.2-34.4 19.6-96.6 96.6-171.6 193.6-188.4 24.8-4.4 66.2-3.8 90.4 1 49.4 10 90.2 32.2 125.8 68 27.8 28 50.4 67.6 61.2 107 5.2 18.8 5.6 22.6 5.6 61 0 38.8-0.2 42.2-5.4 61-21 75.8-76.6 136.8-149.4 164.4-7.2 2.8-22 7-33 9.4l-19.8 4.6-20 60.2-20.2 60.4h-143v60h-240v-30zM572 688v-30h-120v60h120v-30zM392 628v-30h240v60h97l10.2-30.6 10.2-30.4-17.8-3.6c-81.4-15.8-151.6-78.6-178.4-159.4l-5-15h-72.4l-5 15c-26.8 80.8-97 143.6-178.4 159.4l-17.8 3.6 10.2 30.4 10.2 30.6h97v-30zM273.6 533.8c32.4-5 69-24.4 94.2-49.6 34.6-34.6 52.2-77.2 52.2-126.2 0-36.6-9.2-67.6-28.4-97-33.6-51.4-88.8-81.2-149.6-81.2-51.2 0-94 18.2-130.4 55.6-33 33.8-49.6 74.8-49.6 122.6s16.6 88.8 49.6 122.6c43.8 44.8 99.2 63 162 53.2zM813.8 533.8c69.4-11 130.4-69.8 145.2-139.8 3.8-18.4 3.8-53.6 0-72-14.8-70-73-126.2-145-140-16.2-3.2-50.8-2.6-67.6 0.8-69.6 14.8-124.8 69.8-139.4 139.2-1.6 7.8-3 24-3 36 0 49.6 17.8 92.2 53.2 127 41.8 41.2 96.4 58.2 156.6 48.8zM209 474.2c-41.2-12-73.2-44.8-83.8-85.6-2-7.8-3.2-20.8-3.2-36.4v-24.2h59.4l1.2 20.6c1.4 24.6 5.2 36.4 15.2 47.8 13.2 14.8 32.4 21.6 61.8 21.6h12.4v60l-25.4-0.2c-18.2 0-29.2-1.2-37.6-3.6zM752 448.4v-29.8l20.6-1.2c26-1.6 37-5.4 49-17.2 15-14.4 20.4-30.4 20.4-59.6v-12.6h60v24.2c0 40.6-9.6 66-34.8 91-25 25.2-50.4 34.8-91 34.8h-24.2v-29.6z" />
<glyph unicode="&#xe90a;" glyph-name="growth" d="M476 956c-40.8-10.2-53-19.4-139.8-107-69-69.8-72.2-73.2-80-89.2-20.4-41.8-12.2-88.2 21.2-120 19.8-19 42-27.8 70-27.8h16.6l0.4-279.4 0.6-279.6 5.4-15.6c15.2-44.6 50.6-80 95-95 14.2-4.8 18.4-5.2 46.6-5.2s32.4 0.4 46.6 5.2c44.4 15 79.8 50.4 95 95l5.4 15.6 0.6 99.6 0.6 99.8-5.2 8.8c-7.4 12.6-19 18.8-35 18.8s-27.6-6.2-35-18.8l-5-8.6v-81.8c0-45-0.8-87.2-1.8-93.8-3.4-23.4-17.6-43.4-37.6-53.4-8-3.8-12.8-4.6-28.6-4.6-16 0-20.6 0.8-28.6 4.8-20.2 10-34.2 29.8-37.6 53.2-1 6.6-1.8 141.6-1.8 299.8v287.8l-5 8.6c-3 5.2-8.6 10.8-13.8 13.8-8.2 4.8-10 5-40.4 5-17.4 0-35.4 1-39.8 2-10.8 2.4-17 10-17 20.4 0 8 1 9.2 65.6 74.4 76.8 77.6 74.6 75.6 89.6 82.8 10.6 4.8 14 5.4 32.8 5.4s22.2-0.6 32.8-5.4c15-7.2 13-5.4 89.8-82.8 64.2-65.2 65.4-66.4 65.4-74.4 0-10.4-6.2-18-17-20.4-4.4-1-24.2-2-43.8-2-34.6 0-36.2-0.2-44.4-5-12.6-7.4-18.8-19-18.8-35s6.2-27.6 18.8-35c8.4-5 8.8-5 55.6-5 50.4 0 58 1.2 78.4 11.4 12.2 6.2 31.8 24.6 38.6 36.2 18.8 32 20.4 67.6 4.4 100.2-7.8 16-11.2 19.6-80.4 89.6-87 87.8-98.6 96.6-140.4 106.8-21.4 5-58 5-79-0.2zM838.4 596c-19-5-29.8-10-46.4-21-26-17.4-47-45-57.6-76l-5.4-16v-430l5.4-15.6c15.2-44.6 50.6-80 95-95 14.2-4.8 18.4-5.2 46.6-5.2s32.4 0.4 46.6 5.2c44.4 15 79.8 50.4 95 95l5.4 15.6v430l-5.4 15.6c-7.6 22.6-20 42.2-37.4 59.4-17.8 17.4-34.8 28-57.2 35.4-22.2 7.2-62.8 8.6-84.6 2.6zM904.6 512.2c20.2-9.8 34.2-29.8 37.6-53.2 2.2-15.6 2.2-366.4 0-382-3.4-23.4-17.6-43.4-37.6-53.4-8-3.8-12.8-4.6-28.6-4.6-16 0-20.6 0.8-28.6 4.8-20.8 10.2-34.4 29.8-37.8 54.4-1 7.8-1.6 93.2-1.2 200.2 0.6 178.8 0.8 187 4.4 195.6 8.4 19.6 21.2 32.4 40 40.4 12.2 5.2 39 4 51.8-2.2zM598.6 536.8c-4.8-2.8-10.8-8.8-13.6-13.6l-5-8.6v-133.2l5-8.6c7.4-12.6 19-18.8 35-18.8s27.6 6.2 35 18.8l5 8.6v133.2l-5 8.6c-7.4 12.6-19 18.8-35.2 18.8-10.2 0-14.6-1-21.2-5.2zM110.4 492c-19-5-29.8-10-46.4-21-26-17.4-47-45-57.6-76l-5.4-16v-326l5.4-15.6c15.2-44.6 50.6-80 95-95 14.2-4.8 18.4-5.2 46.6-5.2s32.4 0.4 46.6 5.2c44.4 15 79.8 50.4 95 95l5.4 15.6v326l-5.4 16c-8 23.2-18.4 39.8-36.6 58-18.4 18.4-35.2 28.8-58 36.4-22.2 7.2-62.8 8.6-84.6 2.6zM176.6 408.2c20-9.8 34.2-29.8 37.6-53.2 1-6.6 1.8-69.2 1.8-139s-0.8-132.4-1.8-139c-3.4-23.4-17.6-43.4-37.6-53.4-8-3.8-12.8-4.6-28.6-4.6-16 0-20.6 0.8-28.6 4.8-20.8 10.2-34.2 29.8-37.8 54.6-1 7.8-1.6 71.6-1.2 148 0.6 127.4 0.8 135 4.4 143.6 8.4 19.6 21.2 32.4 40 40.4 12.2 5.2 39 4.2 51.8-2.2z" />
<glyph unicode="&#xe90b;" glyph-name="text" d="M434 860c-172.6-21.8-319.6-107-391.4-227.4-29.2-49-42.6-97.2-42.6-154 0-51.4 10.8-95.2 35.2-142.6 16.6-32 34.8-57.6 59.6-83.4 82.2-85.8 193.2-137.8 326.6-153.4 31-3.8 104.8-4.2 151-1.2 63 4.4 97 10.4 147.8 26.2l25.2 7.8 39.8-16.8c48-20.2 104-45.2 149.8-67 31-14.8 35-16.2 46.2-16.2 15.4 0 27.4 6 35.8 17.8 10.6 15.2 10.2 20.4-15.8 149.6l-22.8 114.6 11.6 23.4c23.6 47 34 90.6 34 141.2 0 15.6-1.4 36.6-3 46.4-20.8 128.4-130.8 242.8-289.4 301.2-44.8 16.4-91.8 27.6-144.6 34-42.2 5-111.4 5-153-0.2zM580.8 772.8c146.2-18.6 273.2-92.8 328.6-191.8 39.8-71.4 37.2-147.2-8-222.8-7-11.6-11.8-22.2-12.6-27.8-1-6.8 2.4-27.4 15.6-93.6 9.4-46.6 16.8-84.8 16.6-84.8s-17.6 7.6-38.4 16.8c-21 9.4-57.8 25-82.2 35-50.8 21-56.2 21.8-79.6 13-65.8-24.8-121.6-33.4-220.8-33.4-62-0.2-97.2 4-149.4 18-76.2 20-154.2 65.8-197.2 115.6-49.8 57.6-73.4 123.8-65.4 185 16 123.8 147.4 232.2 322 265.8 53.4 10.2 115.6 12 170.8 5zM277.8 603.4c-13.6-7.2-20.6-18.6-21.4-35.2-1-15.6 2.2-24.4 12.2-34.2 13-12.6 4-12.2 204.6-11.6l182 0.6 8.4 5.4c9.2 6.2 17.4 18.8 19.4 30 3.2 17.4-7.8 38.6-23.8 45.8-7.8 3.6-17.4 3.8-190.4 3.8h-182.2l-8.8-4.6zM281 434.2c-17.8-8.2-25.8-21.8-24.6-42.4 0.8-16.6 7.8-28 21.4-35.2l8.8-4.6h140c123.8 0 140.6 0.4 146.6 3.2 33 15.6 33 63.6-0.2 79-7.6 3.6-15.8 3.8-146 3.8-129.6 0-138.4-0.4-146-3.8z" />
<glyph unicode="&#xe90c;" glyph-name="bow-and-arrow" d="M18.6 954.8c-4.8-2.8-10.8-8.8-13.6-13.6-10-17.2-5.4-58.8 10-86.2 22.4-40.2 66.8-65.4 135-76.8 35.6-5.8 59.4-7.8 142-11.2 75.6-3 102.8-5.2 127.4-10.2 31-6.2 41.4-12.4 58.2-33.4 21.2-26.6 33.2-54.8 48.4-112.4 15.2-57 31.8-87.8 59.6-109.6 24-18.8 43.6-27 102-43.2 19.4-5.4 42.8-13 51.8-16.8 32.2-13.6 66-40.6 73.6-58.6 9.8-23.4 14.2-61.6 18-155.8 5.2-125.8 11.4-168.4 31.2-210.6 24.6-53.2 64.6-80.4 117.4-80.4 14.6 0 18.2 0.8 25.6 5 12.6 7.4 18.8 19 18.8 35 0 24.2-14.2 38.4-41 41-17.2 1.8-24.2 4.6-32.6 13-16 16-26.8 51.2-32.2 106.2-1.2 11.4-3.6 54.6-5.2 95.8-3.4 84.4-6.8 119.6-14.2 149.8-11.8 48-28 71.8-70.2 103.4-29.6 22.2-63.2 37-120.4 52.8-46.4 12.8-60 18.4-72 29.2-12.6 11.2-20.4 27.6-29.4 61-23.4 87.8-41.4 124.2-80.8 164-26.6 26.6-48.4 37.2-93.8 45.8-32 5.8-54.2 7.6-136.2 11-41.2 1.6-84 4-95 5-58.6 6.2-91 16.2-107.4 33.4-9 9.2-10.6 13.6-12.6 31.6-2.6 27-16.8 41-41.2 41-10.2 0-14.6-1-21.2-5.2zM750.6 954.8c-24.6-14.6-25.2-54-1.2-69.2 7.6-4.6 8.2-4.6 85.6-5.6 75-1 78.4-1.2 86-5.2 9.2-5 13-9 18.2-18.8 3.4-6.4 3.8-13.8 4.8-86 1-78.4 1-79 5.6-86.6 7.2-11.4 19-17.4 34.4-17.4 16 0 27.6 6.2 35 18.8l5 8.6v82.4c0 92-0.4 95-13.4 121-9.6 19.2-30.6 40.2-49.8 49.8-26 13-29.2 13.4-120 13.4h-81.8l-8.4-5.2zM821.8 814.2c-11.4-7.4-136.4-133.2-140.6-141.6-2-3.8-3.2-11.4-3.2-18.8 0-24.2 15.6-39.8 39.8-39.8 7.4 0 15 1.2 18.8 3.2 8.4 4.2 134.2 129.2 141.6 140.6 4.8 7.6 5.8 11 5.8 22 0 16.2-6.2 27.8-18.8 35.2-12.8 7.4-31.2 7.2-43.4-0.8zM108.6 696.8c-12.8-7.6-18.6-18.8-18.6-36 0-7.6 6.4-86.6 14-175.6 13.6-157.4 14-162 19-170.4 7.4-12.6 19-18.8 35-18.8s27.6 6.2 35 18.8c4 7 5 11.2 5 22.4 0 7.6-6.4 86.6-14 175.6-13.6 157.6-14 161.8-19 170.4-7.4 12.6-19 18.8-35.2 18.8-10.2 0-14.6-1-21.2-5.2zM477.8 468.2c-4.8-3.2-70.4-67.4-145.6-142.8l-136.8-137-8.2 3.2c-7 2.8-19.8 3.4-83.8 4l-75.6 0.6-8.8-5.2c-12.8-7.4-19-19-19-35s6.2-27.6 18.8-35c8.4-5 9-5 55.4-5h46.6l-41.2-41.4c-22.6-23-42.6-44.4-44.4-48-2-3.8-3.2-11.4-3.2-18.8 0-24.2 15.6-39.8 39.8-39.8 7.4 0 15 1.2 18.8 3.2 3.6 1.8 25 21.8 48 44.4l41.4 41.2v-46.6c0-46.4 0-47 5-55.4 7.4-12.6 19-18.8 35-18.8s27.6 6.2 35 18.8l5 8.6v71.6c0 61.4-0.4 73.4-3.4 83.8l-3.4 12 139.2 138.2c76.6 75.8 141.2 141.2 143.4 145 6.2 10.4 5.8 29.8-0.8 41.2-7.4 12.6-19 18.8-35.2 18.8-11 0-14.4-1-22-5.8zM378.6 128.8c-12.4-7.4-18.6-19-18.6-34.8 0-16 6.2-27.6 18.8-35 8.2-4.8 14-5.6 173.2-20 90.6-8.2 170-15 176.6-15 23.8 0 39.4 15.8 39.4 40 0 16-6.2 27.6-18.8 35-8.2 4.8-14.4 5.6-172 20-89.8 8.2-169.4 15-176.8 15-10.8 0-15-1-21.8-5.2z" />
<glyph unicode="&#xe90d;" glyph-name="download" d="M100 956.8c-44.8-11.6-81.4-47.6-95.2-93.8-3.4-11.4-3.8-30.6-4.2-348.6-0.6-272.2-0.2-336.4 1.8-335.2 1.4 1 6.6 4.6 11.4 8.4 12.4 9.4 37.2 21.4 54.6 26.6 12.8 4 20.6 4.6 65.2 5.2l50.4 1v739.6l-36.4-0.2c-25 0-40-1-47.6-3zM242 590v-370h137c108 0 137.2 0.6 138 2.6 0.4 1.2 3 11 6 21.4 16.8 61.2 60.4 120.2 116.8 158 42.6 28.6 99 45.8 152.4 46.6l23.8 0.4v511h-574v-370zM624 753v-29h-200v58h200v-29zM692 623v-29h-334v58h334v-29zM776 391.8c-100.2-7.2-185.6-84.4-205.2-185.6-4.2-20.8-4-64.8 0.2-85.2 18-87.8 81.2-155.4 166.4-178.6 18-4.8 22.6-5.2 58.6-5.2s40.6 0.4 58.6 5.2c39 10.6 74.2 31.2 103 60s49.4 64 60 103c4.8 18 5.2 22.8 5.2 58.6 0.2 36.6-0.2 40.2-5.4 58.8-18.4 66.2-62.8 119.2-124 148.2-22.6 10.8-51 18.6-72.4 20-8.8 0.6-18.2 1.4-21 1.8-2.8 0.2-13.6-0.2-24-1zM824 221c0-35.8 0.6-65 1.4-65s9.6 8 19.6 18l18 18 41-41-108-108-108 108 41 41 18-18c10-10 18.8-18 19.6-18s1.4 29.2 1.4 65v65h56v-65zM85.6 160.8c-36.8-8.8-67-36.8-79.8-73.4-4.8-13.8-5.8-19.6-5.8-36.4 0-11.2 1.4-24.8 3-31 10.6-39.8 46-73.8 85-82 8-1.6 83-2 273.6-1.6l262.6 0.6-13.4 11c-16.2 13.4-38 38-50.4 57.4l-9.4 14.4-397 0.2v58h185.2c175.4 0 185 0.2 184 3.6-4.4 14-9.4 40-10.2 53.4-0.8 8.8-1.6 19-2.2 22.6l-1 6.4-206.4-0.2c-168.6-0.2-208.4-0.6-217.8-3z" />
<glyph unicode="&#xe90e;" glyph-name="play" d="M180.6 958c-4.6-1-15.2-4.4-23.4-7.8-42.2-17-74.4-54-84.6-97.6-3.4-14.8-3.6-35-3.6-405.6v-390l4.6-15.8c13.4-46.6 45.2-81.4 88.8-97.6 21.6-8 56.8-10 77.6-4.6 20.2 5.2 44 17.2 51.6 25.8 8.4 9.6 10.4 15 10.4 27.8 0 12.6-5.6 23.4-16.6 32.2-6.2 5-9.8 6.2-20.2 6.8-11.2 0.8-14.6 0-28.8-6.4-12.4-5.6-18.4-7.2-27.6-7.2-22 0-42 13.8-52.6 36l-5.2 11v768l5.6 11.4c14.2 28.8 48.8 42 76.4 28.8 17.6-8.4 613.8-377 621.8-384.4 23.2-21.8 23.6-60.6 0.4-83-4-3.8-106.4-67.6-227.8-141.8-124.6-76.2-223.6-138-227.6-142.2-13.6-13.8-15.2-35.8-3.8-51.6 8-11 18.8-16.2 33.4-16.2 9.6 0 13.8 1.2 24.8 7.6 7.4 4 110.4 66.8 229 139.4 199.8 122.4 216.6 133 230.8 147 30.4 30.2 44.8 72 39.8 115.6-4.4 39-25.4 75.2-56.6 97.2-17 12-611.6 378.2-625.6 385.4-19.2 9.8-37.8 13.8-61.6 13.6-11.6-0.2-24.8-1-29.4-1.8z" />
<glyph unicode="&#xe90f;" glyph-name="user-image-with-black-background" d="M458 871.8c-147.8-15-288-99.2-370.8-222.8-42.2-63-68.2-127.8-81.6-204-5.8-33-7.2-109.6-2.8-144.2 12.2-93.6 44-173 99.2-247.4 13-17.6 16-20.2 16-14 0 7.4 6.8 30.4 13 43.8 27.8 60.8 97.6 115.6 184.2 144.8l26 8.8 14-11.2c70-56.2 157.4-71.8 239.2-42.6 24.6 8.8 58.4 28.4 77.6 44.6l6.8 6 20.2-7c26.4-9.2 67.6-29.4 90.2-44.2 60-40 99.2-95.6 104.2-148 0.6-6.8 1.8-12.2 2.6-12 1.6 0.6 25.2 29.4 34.2 41.6 3 3.8 11.2 16.6 18.4 28.2 39.4 63.8 63.4 132.6 72.6 207.8 2.6 21.4 3 37.2 2.2 75-1.2 51-4 72.4-14.2 113-53 208.6-232.2 362.8-446 383.8-25.2 2.6-80.2 2.4-105.2 0zM535.4 681.8c21.6-2.8 50.4-13 70.6-24.8 21.6-12.8 53.4-43.8 67.8-66 60.6-94.6 48.8-223.4-27.4-300.4-60.2-61-143-75.6-217-38.4-55.6 28.2-97.8 85.8-113.4 155-6.8 30-5.4 78.6 2.8 111.6 11 42.6 30.8 77.6 62 108.2 44 43.4 98 62.6 154.6 54.8z" />
<glyph unicode="&#xe910;" glyph-name="download-symbol" d="M370 956.8c-9.2-4-15.4-10-20.6-19.8l-4.4-8-0.6-196.4-0.4-196.6h-35.6c-44.2 0-52.6-2-64.2-15.2-11.8-13.4-14.8-26.6-9.8-43.6 2-7 19.6-25.6 126.4-133 84.8-85 126.8-125.8 132.2-128.4 10.4-4.8 27.6-4.8 38 0 5.4 2.6 47.4 43.4 132.2 128.4 106.8 107.4 124.4 126 126.4 133 5.2 18 1.8 31.4-11.2 44.8-12 12.4-19.8 14-64.4 14h-34l-0.4 196.6-0.6 196.4-4.4 8c-5.4 10-11.6 16-21 20-11 4.6-273 4.4-283.6-0.2zM92.6 101.2c-76.6-28.4-73-138.6 5.2-162.4 13.8-4.2 814.6-4.2 828.4 0 23.2 7 42.4 23.2 52.2 44.4 22.4 47.8-0.2 101.8-49.2 118.8-11.8 4-14.8 4-418 3.8h-406.2l-12.4-4.6z" />
<glyph unicode="&#xe911;" glyph-name="right-arrow-1" d="M719.4 706.6l-23.4-23.6 201-201h-897v-68h897l-201-201 47-47 282 282-282 282-23.6-23.4z" />
<glyph unicode="&#xe912;" glyph-name="right-arrow1" d="M280 955.6c-8.8-3.4-15.4-8.8-34.2-27.4-28.8-28.6-32.6-35.4-32.8-57.2 0-11.6 1-18.2 3.8-24 2.6-5.4 66.6-71 199-203.6l195.2-195.4-195.4-195.6c-152-152-196.4-197.4-199.4-204.4-2.8-6-4.2-13.4-4.2-22 0-20.6 5.8-30.6 33.6-58.2 19.6-19.4 25.4-23.8 35-27.4 14.6-5.6 26.2-5.6 40.8-0.2 11.2 4 21.6 14.2 246 238.6 259.4 259.2 244.6 242.8 244.6 269.2s14.8 10-244.6 269.2c-224.6 224.6-234.8 234.6-246 238.6-14.4 5.2-27.2 5.2-41.4-0.2z" />
<glyph unicode="&#xe913;" glyph-name="line-chart" d="M782.4 957.8c-9.4-2.8-21.8-15.8-24.6-26.2-4.6-17.8 2.4-36.4 17.6-45.8 7.6-4.8 8.4-4.8 74.8-5.8l67.2-1 8-5.4c4.4-3 10.2-8.8 12.8-13 4.8-7.6 4.8-8.4 5.8-74.8l1-67.2 5.4-8c8.2-12.4 18-17.6 33.6-17.6s25.4 5.2 33.6 17.6l5.4 8 0.6 66.2c0.6 74.8-0.4 84.2-13 109.8-9.2 18.2-32 41.6-50 51-24.8 13-35.6 14.4-107.4 14.2-35.4 0-67.2-1-70.8-2zM134.4 822c-24.6-6.4-40.6-16.4-69.4-43.2-43-40-60.4-59-63-69-8.6-31.6 18.4-58.2 50-49.8 7.8 2 14.2 7.6 46 39 21.8 21.6 40.6 38.6 46 41.4 13.8 7 36.4 7.6 50.4 1.2 8-3.8 39.6-31.4 133.6-116.8 67.8-61.4 127.6-115.6 133-120.4 20.8-18.4 59.6-32.4 89-32.4 31.8 0 69.6 14.6 92.2 35.6 18.6 17 234.2 244 238.8 251.2 3 4.6 4 9.6 4 19.2 0 15.6-5.2 25.4-17.6 33.6-6.8 4.4-10.4 5.4-21.2 5.4-9.2 0-15-1.2-19.4-3.8-3.4-2-58.6-59-123-126.6-131.6-138.4-126.2-133.6-153.8-133.6-11 0-17.4 1.2-24.2 4.2-6.4 3-47.4 39-130 114-66.4 60.4-126.6 115-133.6 121.2-14.4 13-38.8 25.8-58.4 30.4-18.2 4.4-50.8 4-69.4-0.8zM117 608.8c-7.6-1.6-23.4-7.6-34.8-13.2-18.2-8.6-23.4-12.4-38.4-27.4s-18.8-20.2-27.4-38.4c-17.4-35.6-16.6-23-16-262.8l0.6-210 4.6-14c9.2-26.8 19.8-44.6 38.4-63 18.8-19 37.2-30 64-38.2 21.6-6.8 58.4-6.8 80 0 26.6 8.2 45.2 19.2 64 38.2 19 18.8 30 37.4 38.4 64l4.6 15v430l-4.6 15c-16 50.6-51.2 86.2-101.4 102-18.6 5.8-52.4 7.2-72 2.8zM176.6 525.2c14.2-6.8 25.8-18.6 32.8-32.8l5.6-11.4v-414l-5.4-11c-7-14.2-19.4-26.6-33.4-33.6-9.6-4.6-13.8-5.4-28.2-5.4s-18.6 0.8-28 5.4c-14.2 7-26.6 19.4-33.6 33.4l-5.4 11.2-0.6 202.8c-0.6 224.2-1 214.2 12.2 232.8 19.4 27.2 55 36.8 84 22.6zM845 578.8c-7.6-1.6-23.4-7.6-34.8-13.2-18.2-8.6-23.4-12.4-38.4-27.4s-18.8-20.2-27.4-38.4c-17.2-35.4-16.6-24.8-16-247.8l0.6-195 4.6-14c9.2-26.8 19.8-44.6 38.4-63 18.8-19 37.2-30 64-38.2 21.6-6.8 58.4-6.8 80 0 26.6 8.2 45.2 19.2 64 38.2 19 18.8 30 37.4 38.4 64l4.6 15v400l-4.6 15c-16 50.6-51.2 86.2-101.4 102-18.6 5.8-52.4 7.2-72 2.8zM904.6 495.2c14.2-6.8 25.8-18.6 32.8-32.8l5.6-11.4v-384l-5.4-11c-7-14.2-19.4-26.6-33.4-33.6-9.6-4.6-13.8-5.4-28.2-5.4s-18.6 0.8-28 5.4c-14.2 7-26.6 19.4-33.6 33.4l-5.4 11.2-0.6 187.8c-0.6 207.6-1 199.2 12.2 217.8 19.4 27.2 55 36.8 84 22.6zM481 392.8c-7.6-1.6-23.4-7.6-34.8-13.2-18.2-8.6-23.4-12.4-38.4-27.4s-18.8-20.2-27.4-38.4c-16.4-33.6-16.8-36.2-16-155 0.6-100.4 0.8-102 5.4-115.8 8.8-26.8 19.6-44.6 38.2-63 18.8-19 37.2-30 64-38.2 21.6-6.8 58.4-6.8 80 0 26.6 8.2 45.2 19.2 64 38.2 19 18.8 30 37.4 38.4 64 4.6 15 4.6 15.4 4.6 122s0 107-4.6 122c-16 50.6-51.2 86.2-101.4 102-18.6 5.8-52.4 7.2-72 2.8zM540.6 309.2c14.2-6.8 25.8-18.6 32.8-32.8l5.6-11.4v-198l-5.4-11c-7-14.2-19.4-26.6-33.4-33.6-9.6-4.6-13.8-5.4-28.2-5.4s-18.6 0.8-28 5.4c-14.2 7-26.6 19.4-33.6 33.4l-5.4 11.2-0.6 93c-0.4 64 0 96.2 1.6 103.4 4.6 20.8 23.2 41.4 44.6 49 14.8 5.2 35.4 4 50-3.2z" />
<glyph unicode="&#xe914;" glyph-name="search" d="M356 956.8c-183.4-22-331.4-171-352.8-355-21.8-186.4 87.6-363.2 264.6-427.8 124-45.4 264.4-26.2 371.8 51 10 7.2 19 13 19.8 13s69-67.4 151.6-149.8c162.6-162.6 156.2-157 170.2-149.6 6.8 3.6 37.4 34.4 40.8 41.2 1.4 2.8 1.8 7.6 1 12-1.2 6.2-20.4 26.2-151.2 157.2-82.4 82.6-149.8 150.8-149.8 151.6s5.8 9.8 13 19.8c77.2 107.4 96.4 247.8 51 371.8-20.4 55.8-52.2 106-93.8 147.6-89.6 89.6-211.4 132-336.2 117zM452 871c91.2-14.8 169-64 218.4-138.4 36.8-55.4 53.8-110.8 54-176.6 0-31.8-2.2-51-9.4-80-28.2-112.6-118.4-202.8-231-231-29-7.2-48.2-9.4-80-9.4-65.8 0.2-121.2 17.2-176.6 54-88.2 58.6-141.4 158-141.4 265 0 53.6 11 98.8 36 147.2 40.4 78.2 112.4 136.4 199 161.4 36.6 10.4 93.2 13.8 131 7.8z" />
<glyph unicode="&#xe915;" glyph-name="arrow-down-sign-to-navigate" d="M55.4 737.8c-20.6-4.8-39.4-20.6-48.8-40.8-4.6-10.2-5.6-14.6-5.4-29 0-32-19.2-10.4 238.4-268.4 155.4-155.6 232-231 238.2-234.4 14.6-7.8 31.6-10.6 46.8-7.4 6.8 1.4 16.6 4.8 21.6 7.4 6.2 3.4 82.8 78.8 238.2 234.4 257.6 258 238.4 236.4 238.4 268.4 0 14.4-0.8 18.8-5.6 29.4-16.8 36.8-61.6 52.4-98.2 34.2-5.2-2.6-77.6-73.6-207.4-203.2l-199.6-199.4-199.6 199.4c-130.4 130.2-202.2 200.6-207.4 203.2-15.2 7.4-34 9.8-49.6 6.2z" />
<glyph unicode="&#xe916;" glyph-name="share" d="M808 905c-65.2-14.6-115.6-61.8-135.4-126.4-4.6-15.2-5.4-21.6-5.6-46.2l-0.4-28.8-353.6-163.2-12 11.6c-33.6 32-75.4 48.8-122 48.8-68.8 0-129.6-37.8-160.2-99.8-13.6-27.8-17.4-44.6-17.6-78 0-28.8 1.8-39.6 11-65 19-51.8 66.2-93.6 124.8-110 13.2-3.6 56.6-4.8 72.2-2 38.8 7.2 76.6 28 101 55.8l10.2 11.6 344.6-132.6 1.4-23c4.6-78.8 57.2-143.8 133.6-165 16.6-4.8 69.2-5.2 86-1 57 14.6 106.8 58.2 125.8 110.2 9.2 25.4 11 36.2 11 65 0 22.2-1 31.2-4.4 44-9.6 35.2-33.4 72-60.6 93.8-34.8 27.6-69 39.8-112.8 39.8-29 0-51.6-5-76.4-17-20.2-9.8-31-17.6-50.8-37l-15-14.8-171.8 66.2c-94.4 36.4-172 66.4-172.2 66.6s-0.6 9.2-1 20l-0.8 19.6 354 163.4 12-11.6c33.6-32 75.4-48.8 122-48.8 68.8 0 129.6 37.8 160.2 99.8 13.6 27.8 17.4 44.6 17.6 78 0 28.8-1.8 39.6-11 65-19 51.8-65.8 93.2-124.8 110-13.2 3.8-63.8 4.4-79 1z" />
<glyph unicode="&#xe917;" glyph-name="phone-call2" d="M496.6 956.2c-9-4.2-17.4-15.2-19.6-25.6-2.8-13.6 7-32.4 20-37.6 3.2-1.4 17.2-3.2 31-4 67-3.6 120.2-17.2 177-44.8 89.6-43.8 159.4-113.6 203.2-203.2 27.6-56.8 41.2-110 44.8-177 1.6-28 3.6-34.8 12.8-42.6 18.2-15.2 45.2-9.2 54.6 12.2 3.8 8.4 4 11.8 2.8 36.4-2.4 51.6-13.6 107.8-30.4 153.8-8.8 24-33.4 74.4-46 94.2-39.2 61.8-93.4 117.2-153.8 157.6-26.4 17.6-78 43.6-108 54.2-48.8 17.2-101.8 27.6-151.8 29.4-25.2 1-29 0.6-36.6-3zM121.2 908c-58.4-27.6-108-52-110.6-54.4-2.4-2.2-6-8.2-7.8-13-3-7.8-3.2-11-1-29.2 11.4-93.6 40.8-192.6 84-282.4 74.2-154 193.8-296.8 339.2-405.2 133.8-99.6 282.8-162.4 437.4-184 35.2-5 42.8-4.2 53.6 5.8 4.2 3.8 20.8 37 56.2 112.4 50.2 106.8 50.2 106.8 49.4 118.4-0.6 9-2 13-6.8 18.6-4.8 5.8-91 62.6-196.4 129.4-13.2 8.6-23.4 11-35.8 8.6-6.6-1.2-14-7.8-53.6-47-25.2-25.2-48.6-46.8-52-48-13.2-5-40.2-1-79.4 12-63 21-118.2 56.2-171.8 109.8-31 31-43.6 46-63.6 75.8-30.8 45.8-53.6 101.2-60.8 147.4-4.6 29-5.8 27.2 47.6 81 40 40.4 46.8 48 48 54.6 3.2 17.2 2.6 18.6-65.2 124-35.4 55.2-66.4 102.6-68.6 105.2-5.8 6.6-15.4 10.2-26.6 10.2-8.2-0.2-24.2-7-115.4-50zM500.4 781.2c-24.4-8.8-31-39-12.6-57.4 8.6-8.6 18.2-11.8 36.2-11.8 29.4 0 75.2-11.4 104.4-26.2 52.6-26.4 95-68.8 121.4-121.4 14.8-29.2 26.2-75 26.2-104.4 0-18 3.2-27.6 11.8-36.2 14.8-15 36.4-14.2 51 1.6 7.4 7.8 9.8 19.8 8.4 39-5.4 67.8-22.4 118.4-57 169.8-56.8 84.6-145.2 137.2-248 147.8-25.4 2.4-33.4 2.4-41.8-0.8z" />
<glyph unicode="&#xe918;" glyph-name="email" d="M97 834.8c-40.6-9.8-75.8-42.6-90.4-84.2l-5.6-15.6-0.6-280.4c-0.6-313.8-1.4-295.8 13.8-326.6 16-32 47-56.8 83-66 15.2-4 23.8-4 415.6-4 444.2 0 411.8-1 441.2 13.6 22 10.8 44.6 33.6 55.8 56.4 15 30.6 14.2 13 14.2 320 0 233.8-0.6 277-3 289-9.8 46.6-49 87-95 97.8-19.2 4.6-810.4 4.4-829 0zM162.6 713.2c3.6-1.4 83.4-68 177.4-148 94-79.8 171.4-145.2 172-145.2s78 65.4 172 145.2c94 79.8 173.4 146.4 176.4 148 12.4 6.4 30.6 1.4 39.2-11.2 5-7.4 6-22.4 2-31-1.4-3-58-52.6-126-110.4-68-57.6-123.6-105.6-123.6-106.4s55.4-53.6 123.2-117.4c67.8-63.6 124.4-118.2 126-121.2s2.8-9.8 2.8-15.2c0-22.2-22-36.4-42.6-27.6-3.6 1.4-63 55.8-132 121-69.2 65-126.4 118.2-127.2 118.2s-17.8-14-37.8-31c-39.8-33.6-46.4-37.4-60-33.4-4.8 1.4-20.4 13.2-44.2 33.4-20.2 17-37.2 31-38 31s-58.2-53.4-127.4-118.6c-69.4-65.2-129-119.8-132.6-121.2-8.2-3.6-22.2-1.8-29.8 3.4-13.8 10-16.4 32.2-5.2 45.4 3.2 3.8 59.6 57.4 125.4 119.2s119.2 113.4 118.8 114.6c-0.4 1.2-55.6 48.6-122.6 105.6-78.2 66.2-123 105.6-125.2 110-13.4 25.4 12.6 54.2 39 42.8z" />
<glyph unicode="&#xe919;" glyph-name="placeholder1" d="M473 958c-142.2-15-264.8-100-327-226.8-30.4-62.2-43.6-123.6-41.4-192.2 2.2-62.4 11.8-102.6 40-165.8 64-143.6 173.4-282.4 325.8-413 28.2-24.2 38.2-28.2 54.2-21.4 14.6 6 104.6 87.6 148 134.2 96.2 103 160.8 196.8 207.4 301 30 67 41.6 123 39.4 191-3 99.2-37.2 183.6-105.4 260.8-58.6 66.4-145.8 113.8-238 129.2-22.4 3.8-80.2 5.4-103 3zM537.6 743c7-0.8 20.4-3.4 29.6-6.2 84.4-24.4 142.8-102.2 142.8-190.2 0-92.8-65.6-173.8-157-193.8-23.6-5-62.8-4.6-85.6 0.8-36.8 9-66.6 25.6-94 52.2-25.4 24.6-44.2 56.8-53.6 92.2-4 14.4-4.6 22-4.6 49 0 33.2 1.4 42.8 11 69 25.4 69.8 91.6 120.6 166.4 127.8 16 1.6 19.4 1.6 45-0.8z" />
<glyph unicode="&#xe91a;" glyph-name="folder" d="M105.6 890c-48.6-5.8-90.2-42-102.6-89.4-4.6-17.2-4.6-688 0-705.2 10.8-41.6 44.6-75 87.6-87 11.6-3.2 40.6-3.4 421.4-3.4s409.8 0.2 421.4 3.4c43 12 76.8 45.4 87.6 87 4.4 17.2 4.6 582 0 599.2-9.6 37.2-36.4 67-74 82.6l-14 5.8-212 1c-208 1-212.2 1-219 5-5.2 3-15.4 16.4-40 53.4l-33 49.4-155-0.2c-85.2 0-161-0.8-168.4-1.6zM406.6 776.2c15.6-23 21.6-33.6 20.2-35.4-1-1.4-11.2-16.2-22.6-32.8l-20.8-30h-141.2c-115.6 0-143.2-0.6-151.8-2.8l-10.8-3 0.8 53.4c0.6 47.4 1 54.2 4.4 60.4 7 13.2 15 19.2 29.2 22.2 3.8 0.8 66.2 1.2 138.8 1l131.8-0.2 22-32.8zM922.4 697.4c6.2-3.6 11.4-8.8 15-15l5.6-9.4v-556l-4.2-8c-5-9.2-9-13-18.8-18.2-6.8-3.6-20-3.8-408-3.8s-401.2 0.2-408 3.8c-9.8 5.2-13.8 9-18.8 18.2l-4.2 8v450l5.6 9.4c3.6 6.2 8.8 11.4 15 15l9.4 5.6 318 1.2 32.8 47.8c18 26.4 34.8 49.2 37.2 50.8s7.6 3.8 11.2 5c4.4 1.2 79.4 1.8 204.8 1.6l198-0.4 9.4-5.6z" />
<glyph unicode="&#xe91b;" glyph-name="bar" d="M576 384h448v-192c0-141.385-114.615-256-256-256v0h-192v448zM0 384h448v-448h-192c-141.385 0-256 114.615-256 256v0 192zM576 960h192c141.385 0 256-114.615 256-256v0-192h-448v448zM256 960h192v-448h-448v192c0 141.385 114.615 256 256 256v0z" />
<glyph unicode="&#xe91c;" glyph-name="left-arrow-long" d="M136 592l-144-144 147.2-147.2c140.8-140.8 150.4-147.2 176-120 25.6 25.6 22.4 32-67.2 123.2l-94.4 96h870.4v96h-870.4l92.8 94.4c81.6 81.6 91.2 99.2 73.6 120-11.2 14.4-24 25.6-30.4 25.6-4.8 0-75.2-65.6-153.6-144z" />
<glyph unicode="&#xe91d;" glyph-name="right-arrow-long" d="M704 710.4c-17.6-20.8-8-38.4 73.6-120l92.8-94.4h-870.4v-96h870.4l-94.4-96c-89.6-91.2-92.8-97.6-67.2-123.2 25.6-27.2 35.2-20.8 176 120l147.2 147.2-144 144c-78.4 78.4-148.8 144-153.6 144-6.4 0-19.2-11.2-30.4-25.6z" />
<glyph unicode="&#xe91e;" glyph-name="creote-svg" horiz-adv-x="793" d="M422.175 956.632c-93.193-13.474-179.2-50.526-248.814-107.116-95.888-78.147-158.316-193.572-171.116-317.53-4.042-36.604-1.796-168.196 3.144-196.267 19.537-111.382 74.33-208.842 157.193-280.028 68.94-59.060 149.109-96.786 240.73-113.404 25.825-4.491 35.93-5.165 91.846-5.165 50.077 0 67.818 0.898 86.681 4.042 49.628 8.309 96.786 23.354 142.372 45.361 25.825 12.351 68.491 38.849 68.491 42.442 0 1.123-5.165 11.677-11.228 23.13-6.288 11.677-10.779 22.007-10.105 23.13 0.674 0.898 5.614 4.716 11.228 8.309 5.614 3.368 10.105 7.186 10.105 8.309 0 2.246-38.849 76.126-47.607 90.498l-4.267 7.411-17.291-12.126c-47.382-32.786-107.34-54.793-169.095-61.979-34.807-4.042-102.175-1.796-132.94 4.267-70.063 14.147-134.063 46.933-183.242 93.642-52.098 49.404-85.333 108.239-103.747 182.793-4.042 17.067-5.165 27.396-5.165 51.649 0 33.684 3.818 54.119 18.189 95.214 41.095 118.793 144.842 206.821 273.965 232.87 30.765 6.063 98.133 8.309 132.94 4.267 61.754-7.186 121.712-29.193 169.095-61.979l17.291-12.126 4.267 7.411c8.982 14.821 47.607 88.477 47.607 90.498 0 1.123-2.695 3.818-6.063 6.063-3.593 2.021-8.758 5.614-11.453 7.86l-5.389 4.042 11.453 21.558c6.288 11.677 11.453 22.232 11.453 23.354 0 3.818-39.074 28.070-68.491 42.442-43.565 21.333-83.537 34.358-135.86 44.239-31.439 5.839-133.614 7.635-166.175 2.919zM549.726 845.249c64-6.961 124.632-28.295 172.912-61.305 9.881-6.737 18.863-11.453 19.537-10.779 1.796 1.572-6.288-14.147-9.656-19.537-1.796-2.246-5.839-0.898-19.761 7.186-64.898 37.502-163.256 58.161-243.649 51.425-35.705-3.144-75.677-11.004-105.993-20.884-39.298-12.8-90.723-40.421-121.712-65.572-26.947-21.782-60.407-57.712-76.351-81.965-11.453-17.291-8.758-7.635 4.267 15.719 25.375 45.361 64.898 89.6 106.667 119.467 37.053 26.498 94.54 51.2 140.575 60.632 38.849 7.86 92.070 10.105 133.165 5.614zM82.189 211.088c75.453-111.158 196.267-185.039 337.74-206.821 35.705-5.614 114.077-5.614 151.579 0 51.425 7.411 110.933 25.825 154.274 47.607 8.309 4.267 15.495 7.635 16.168 7.635 0.449 0 3.593-4.716 6.961-10.33l6.288-10.554-5.389-4.042c-9.881-7.635-68.042-35.256-91.172-43.34-50.077-17.291-84.884-23.354-145.516-25.375-89.151-2.695-155.172 10.554-229.053 46.26-88.028 42.667-160.561 111.382-202.33 192.225-6.961 13.698-12.126 24.253-11.453 23.579s6.063-8.084 11.902-16.842z" />
<glyph unicode="&#xe91f;" glyph-name="quote" d="M390 877c-46.4-6.8-88.8-19.6-128.4-38.4-86.6-41.6-153.8-107-198.4-193-15.8-30.4-25.6-56.6-34.4-91.2-13-51-12.8-48.2-12.8-305.6v-232.8h464v464h-336v-64h272v-336h-336v178.6c0.2 188.2 1.2 225.4 8 259.4 20 100.2 81 188.2 168 242.2 48.8 30.4 111.4 50.4 167 53.4l24 1.4 0.6 32.6 0.4 32.4-20.4-0.2c-11.4-0.2-28.2-1.4-37.6-2.8zM918 877c-46.4-6.8-88.8-19.6-128.4-38.4-86.6-41.6-153.8-107-198.4-193-15.8-30.4-25.6-56.6-34.4-91.2-9.2-36-12.8-66.2-12.8-105.6v-32.8h400v-336h-336v272h-64v-336h464v464h-397.6l1 8.6c0.6 4.6 3.2 19.2 5.8 32.6 32 163.4 178 287.6 344.8 293.4l13 0.4 0.6 32.6 0.4 32.4-20.4-0.2c-11.4-0.2-28.2-1.4-37.6-2.8z" />
<glyph unicode="&#xe920;" glyph-name="setup-dots" d="M43.2 916.8c-72-81.6-27.2-196.8 78.4-196.8 104 0 156.8 113.6 86.4 188.8-41.6 43.2-128 46.4-164.8 8zM179.2 873.6c24-33.6 12.8-88-20.8-105.6-41.6-22.4-110.4 17.6-110.4 64 0 62.4 96 92.8 131.2 41.6zM425.6 913.6c-36.8-40-36.8-121.6-1.6-161.6 65.6-72 200-19.2 200 80 0 97.6-134.4 153.6-198.4 81.6zM572.8 836.8c6.4-60.8-40-96-91.2-70.4-75.2 40-48 134.4 35.2 126.4 44.8-4.8 51.2-11.2 56-56zM817.6 902.4c-38.4-48-41.6-73.6-16-123.2 25.6-48 44.8-59.2 105.6-59.2 59.2 0 116.8 51.2 116.8 105.6 0 59.2-59.2 118.4-120 118.4-38.4 0-62.4-11.2-86.4-41.6zM968 862.4c19.2-28.8-6.4-89.6-38.4-99.2-40-9.6-97.6 30.4-97.6 68.8 0 43.2 60.8 83.2 97.6 62.4 16-8 33.6-22.4 38.4-32zM33.6 518.4c-38.4-48-41.6-73.6-16-123.2 25.6-48 44.8-59.2 105.6-59.2 147.2 0 148.8 208 1.6 220.8-46.4 3.2-64-3.2-91.2-38.4zM184 448c0-19.2-14.4-46.4-32-57.6-28.8-19.2-38.4-17.6-68.8 3.2-44.8 30.4-44.8 78.4 0 108.8 30.4 20.8 40 22.4 68.8 3.2 17.6-11.2 32-38.4 32-57.6zM424 528c-67.2-73.6-16-192 83.2-192 67.2 0 116.8 48 116.8 112 0 99.2-134.4 152-200 80zM563.2 489.6c24-33.6 12.8-88-20.8-105.6-41.6-22.4-110.4 17.6-110.4 64 0 62.4 96 92.8 131.2 41.6zM816 524.8c-70.4-75.2-17.6-188.8 86.4-188.8 105.6 0 150.4 115.2 78.4 196.8-36.8 38.4-123.2 35.2-164.8-8zM972.8 451.2c8-48-62.4-91.2-107.2-67.2-33.6 17.6-44.8 72-20.8 105.6 32 49.6 118.4 24 128-38.4zM33.6 134.4c-19.2-24-33.6-54.4-33.6-70.4s14.4-46.4 33.6-70.4c65.6-83.2 206.4-33.6 206.4 73.6 0 104-140.8 150.4-206.4 67.2zM161.6 128c30.4-17.6 40-72 17.6-105.6-20.8-30.4-62.4-36.8-97.6-12.8-43.2 32-43.2 78.4 1.6 108.8 43.2 30.4 38.4 30.4 78.4 9.6zM424 144c-16-17.6-28.8-54.4-27.2-81.6 3.2-148.8 227.2-147.2 227.2 1.6 0 99.2-134.4 152-200 80zM550.4 123.2c19.2-14.4 27.2-36.8 22.4-67.2-3.2-40-12.8-49.6-52.8-52.8-30.4-4.8-52.8 3.2-67.2 22.4-27.2 38.4-27.2 48 11.2 86.4s48 38.4 86.4 11.2zM816 140.8c-41.6-44.8-40-92.8 1.6-147.2 27.2-35.2 44.8-41.6 91.2-38.4 104 9.6 147.2 123.2 73.6 195.2-36.8 38.4-126.4 32-166.4-9.6zM969.6 86.4c11.2-41.6 0-64-41.6-86.4-44.8-24-104 30.4-91.2 84.8 17.6 67.2 116.8 68.8 132.8 1.6z" />
<glyph unicode="&#xe921;" glyph-name="phone-call1" d="M283.2 904c-24-14.4-65.6-67.2-96-124.8-48-94.4-51.2-108.8-51.2-267.2 0-147.2 4.8-179.2 41.6-256 22.4-48 56-105.6 73.6-126.4 46.4-57.6 59.2-16 12.8 46.4-156.8 211.2-113.6 636.8 70.4 707.2 49.6 17.6 129.6-12.8 128-49.6 0-14.4-19.2-65.6-43.2-113.6-35.2-70.4-51.2-89.6-86.4-92.8-35.2-4.8-46.4-16-54.4-60.8-14.4-76.8 0-161.6 40-252.8 30.4-72 35.2-75.2 80-65.6 41.6 8 59.2 0 120-57.6 92.8-84.8 97.6-134.4 17.6-166.4-40-17.6-65.6-19.2-97.6-8-52.8 20.8-73.6 4.8-32-25.6 76.8-56 233.6 14.4 233.6 105.6 0 9.6-36.8 57.6-81.6 105.6-68.8 70.4-92.8 86.4-136 86.4-60.8 0-76.8 20.8-102.4 132.8-20.8 97.6-6.4 168 36.8 174.4 40 4.8 94.4 80 132.8 182.4 27.2 70.4 27.2 73.6-4.8 104-43.2 43.2-144 54.4-201.6 22.4zM552 700.8c-46.4-43.2-60.8-70.4-73.6-148.8-28.8-164.8-32-156.8 57.6-174.4 44.8-8 115.2-16 156.8-16 70.4-1.6 83.2 4.8 132.8 57.6 43.2 48 54.4 73.6 54.4 126.4 0 35.2-11.2 84.8-25.6 110.4-36.8 60.8-102.4 96-180.8 96-52.8 0-78.4-11.2-121.6-51.2zM793.6 670.4c83.2-76.8 60.8-204.8-43.2-260.8-51.2-27.2-67.2-28.8-120-12.8-35.2 9.6-78.4 22.4-96 27.2-30.4 8-33.6 17.6-27.2 84.8 9.6 91.2 48 163.2 102.4 192 51.2 27.2 137.6 12.8 184-30.4zM592 544c0-8 8-16 16-16 9.6 0 16 8 16 16 0 9.6-6.4 16-16 16-8 0-16-6.4-16-16zM672 544c0-8 8-16 16-16 9.6 0 16 8 16 16 0 9.6-6.4 16-16 16-8 0-16-6.4-16-16zM752 542.4c0-8 8-11.2 16-6.4 9.6 4.8 16 12.8 16 17.6 0 3.2-6.4 6.4-16 6.4-8 0-16-8-16-17.6zM320 64c0-8 8-16 16-16 9.6 0 16 8 16 16 0 9.6-6.4 16-16 16-8 0-16-6.4-16-16z" />
<glyph unicode="&#xe922;" glyph-name="thumbs-up" d="M720.4 955.2c-2.8-3.6-4.2-9.6-5-21.8-3.8-48.2-23.6-91.6-53.4-116.6-18-15-53.6-26.8-81-26.8-7.2 0-9.6-1-13.8-6.2-7-8.2-6.8-16.6 0.4-23.6 4.8-5 7.2-5.6 23.6-6.8 35-2.2 67.6-18 87.4-42.6 19.6-24.2 33.8-63.2 36.8-100.6 1.6-20.8 5.4-26.2 18.6-26.2 11.4 0 18 6.8 18 18.4 0 13.8 5.4 43.4 11 59.4 19 56.2 58.8 88.2 113.8 91.6 16.4 1.2 18.8 1.8 23.6 6.8 6 5.8 7.2 13.2 3.2 20.4-3.8 7.2-7.6 8.8-24.4 10.2-36.6 2.8-59 12.6-82.2 36-12.4 12.6-18 20-24.6 33.4-10 20-17.6 48.6-19.6 72.6-1.8 22.6-5 27.2-18.8 27.2-8 0-10.4-1-13.6-4.8zM738.2 845.6c8.6-20.8 37.2-53.6 58.2-66.6 5.4-3.4 9.6-6.4 9.6-7s-4.6-3.6-10.2-7c-20.8-12.2-46-41-56.6-64.6-2-4.6-4.4-8.4-5.2-8.4-0.6 0-2.8 3.4-4.6 7.8-10 22.6-32.4 48.6-55.4 64.2l-12.4 8.4 10.8 7c22 14.6 48.8 45.6 57.4 66.2 1.6 3.6 3.4 6.4 4.2 6.4s2.6-2.8 4.2-6.4zM364.4 905c-5.2-4.4-6.4-6.8-6.4-13.4 0-7.4 1.4-9.4 16.4-24.8 18-18.6 24.6-21.6 35.2-16 6.8 3.6 8.4 6.6 8.4 16.6 0 6.2-2 9.2-16.4 24-19.8 20-26.6 22.6-37.2 13.6zM452.6 891.4c-15.8-16-18.6-19.6-18.6-25.2 0-4.6 1.8-8.2 5.8-12.4 6.6-6.4 13.4-7.4 21.8-3 6.4 3.4 29 26.2 32.2 32.6 4.6 9 1.2 20.6-7.2 24.4-10.8 4.8-14.4 3-34-16.4zM397 832.6c-2.2-0.6-11.8-8.8-21.4-18.2-16-15.8-17.6-18-17.6-25 0-10.6 7-17.4 18-17.4 7.4 0 9.4 1.4 24 15.2 17.8 17.2 22 25.2 17.8 35.2-1.6 3.8-5 7.2-9 8.8-3.8 1.6-7 2.6-7.2 2.6-0.4-0.2-2.4-0.6-4.6-1.2zM444.8 832c-6.4-2.6-10.8-10-10.8-17.8 0-6 2.2-9.2 17.6-24.6 16.2-16.2 18.2-17.6 25.6-17.6 8.6 0.2 12.8 2.6 16.6 9.8 4.8 8.8 1.2 16.2-16.4 33.6-16.8 16.6-23.8 20.2-32.6 16.6zM261 751.2c-3.2-3.2-5-8-5.8-14.4-4.4-38.2-13.4-61.2-30-77.8-13-12.8-25.4-18.6-46-21.4-13.8-1.8-17-3-21.6-8-6.2-6.4-7-11.2-2.6-19.4 3.4-6.8 10.2-9.6 26.4-10.8 39.6-3.2 66.4-36.6 72.6-91.4 2.4-20.6 6.4-26 19-26s16.6 5.4 19 26c6.2 55.2 33 88.4 73.4 91.4 7.6 0.6 16 2.4 18.8 3.8 6.4 3.2 10.8 12.8 9 19.8-2.2 8.4-8.2 11.8-26 14.4-21.2 3-33.4 8.8-46.4 21.6-16.2 16.2-25 38.2-28.8 72-1.6 13.4-2.6 16.8-7 20.6-7 6-17.6 6-24-0.4zM299 628.4l10.8-10-9.8-8.2c-5.4-4.6-13.6-14-18.2-21l-8.4-13-9.6 13.8c-5.2 7.4-13.6 16.8-18.6 21l-9 7.4 12.4 11.6c6.8 6.4 15 16 18.2 21.4l6 9.8 7.6-11.4c4.4-6.4 12.6-16 18.6-21.4zM536.4 674.8c-22.6-6-42.8-23.6-49-42.8-4.2-13.2-4.4-35.6-0.2-55.6 4-19.4 3-43.2-2.8-59.2-14-38.8-50.8-78.4-109.2-117.6-31.4-21-50.2-29.2-76.8-33.4l-10.2-1.6-3.2 8.6c-4.4 11.8-18.2 26.6-31.4 33.8l-10.6 6-60.2 0.6c-58 0.6-60.6 0.4-72-3.8-16-6-32.6-22.4-38.4-38.4-4.4-11.6-4.4-11.8-4.4-196.4 0-181.6 0-185 4.2-195.8 5-13.8 18.2-28.6 32.2-36.2l10.6-6h128l10.6 6c13.2 7.2 26.8 21.8 31.6 34 3.8 9.2 3.8 9.2 11.8 7.8 14.4-2.2 30.6-8.6 50.8-19.8 26.4-14.8 39.8-20 64-25 19.6-4 25-4 198.8-3.6l178.4 0.6 10 5.2c33.6 17.8 47.6 59 31.4 92l-3.6 7.4 6.6 3.2c11.8 5.6 25.6 20.4 31.8 33.8 7.4 16.4 7.8 39.2 1.2 54.2-2.4 5.4-4.4 10.2-4.4 11 0 0.6 3 2.6 6.6 4.2 3.4 1.4 10.6 6.6 15.6 11.4 28 26.2 28 73.2-0.4 99.6l-9.6 9 6.4 12.2c5.8 11.4 6.4 14 6.4 31.6 0 16.4-0.8 20.6-5 29.2-6.2 12.8-21.4 28-33.6 33.6-9.2 4.4-10.8 4.4-125.8 5-64.2 0.2-116.6 0.8-116.6 1.2s4.6 10.2 10.2 22c21 44.8 33.2 90.6 35.2 131.6 2.4 52-10.4 90.8-39 118-23 22-49.2 29.8-76 22.4zM574 636c3.8-2 11.2-8 16.2-13.4 32-34.2 34-95.6 5.6-173.6-3.6-9.8-14-32.8-23.2-50.8s-16.6-34.8-16.6-37.4c0-2.4 2.2-7.2 4.8-10.2l4.8-5.6 132.8-1c101.6-0.8 133.6-1.6 137-3.6 8.2-4.6 15.2-16 16.2-26.2 1-12-4.2-22.8-15-30.2-7.2-5-7.4-5-67.8-6-54.8-1-60.8-1.4-64.4-4.6-2.2-2-4.6-5.8-5.2-8.6-1.8-7 3.6-18.4 9.8-20.8 3.2-1.2 31.6-2 69.2-2 70 0 72.8-0.4 82.2-11.6 11.6-13.8 11.6-29 0.2-42.6-9.8-11.4-12-11.8-84.4-11.8h-66l-5.6-4.8c-4.4-3.8-5.6-6.4-5.6-13.2s1.2-9.4 5.6-13.2c5.6-4.8 5.8-4.8 54-4.8 42.8 0 49.4-0.6 56.6-3.8 20.4-9.2 25.8-33.2 11.6-50.2-9.8-11.6-12-12-64.8-12-54 0-58-0.8-61.8-12.6-2.6-7.6-0.8-14.4 5-19.8 3.2-2.8 9.6-3.4 37.8-4 31.2-0.6 34.6-1 41.2-5.2 22.8-14.2 21.6-45-2.2-57.4-5.4-2.8-26.8-3-182.6-2.6l-176.4 0.8-15.4 4.6c-8.4 2.6-26.8 10.8-40.8 18.6-28 15.2-40.8 20-61.4 23.6l-13.4 2.4v305.6l4.6 0.8c2.4 0.6 10.2 2 17.4 3.4 29.8 5.4 63.6 22.4 102.8 51.4 53.4 39.8 88 81 102.2 122 7.4 21 8.8 50.2 4 77.2-2 10.8-3 24-2.4 29.8 0.8 9 2 11.2 9.2 17.6 13.4 12 28.2 14 44.2 5.8zM238 373.6c8.8-6 13.8-13.2 16-22.8 2.4-10.2 2.4-341.4 0-351.6-2.2-9.6-7.2-16.8-16-22.6-6.4-4.4-8-4.6-59-4.6-51.2 0-52.6 0.2-59.2 4.6-3.6 2.4-8.8 7.6-11.2 11.2l-4.6 6.8v360.8l4.6 6.8c2.4 3.6 7.6 8.8 11.2 11.2 6.6 4.4 8 4.6 59.2 4.6 51 0 52.6-0.2 59-4.4zM858.4 598c-6-5.6-6.8-10.6-6-34.8 0.6-23.8 3-28.4 15.8-30.4 5.6-1 8.2-0.2 13.4 4.2l6.4 5.4v24.8c0 23.8-0.2 25.2-5 29.8-6.2 6.4-18.2 6.8-24.6 1zM791.8 531.4c-9.4-7.2-10.2-19.4-2-27.6 5.8-5.8 6.2-5.8 28.8-5.8 22 0 23.4 0.2 29.2 5.2 8.2 6.8 8.8 18.4 1.2 25.8-4.6 4.8-6 5-29.4 5-16.2-0.2-25.6-1-27.8-2.6zM891.6 528c-5.2-5.4-6-7.2-5-13.6 0.8-4.4 3.4-9.2 6.4-11.8 4.8-4.2 7.2-4.6 27.2-4.6 30 0 35.8 3.2 35.8 19.2 0 4.8-1.6 8.6-5 11.8-4.6 4.8-6 5-29 5h-24.4l-6-6zM857.8 494.2c-5.8-5.8-5.8-6.2-5.8-29.2s0-23.4 5.8-29.2c3.6-3.4 8-5.8 11.2-5.8 6.6 0 16.2 4.8 17.8 9 0.6 1.8 1.2 14 1.2 27.2 0 22.8-0.2 24.2-5 28.8-7 7.2-17.6 6.8-25.2-0.8z" />
<glyph unicode="&#xe923;" glyph-name="recommendation" d="M501.6 908.2c-22.6-8.8-36.2-28.4-38.6-55.2-3.6-40-12-80.2-25-119.2-10.2-30.6-37-85.8-55.4-113.8-31.4-47.6-75-95-119.8-129.6l-23.8-18.4-1.2 13.4c-1.6 21-9.4 32-25.6 36.8-4.8 1.2-38.6 1.8-98.4 1.4l-91-0.6-8.2-5.4c-14.8-9.8-14.6-7.8-14.6-110.2v-91.2l5.2-4c6.8-5.4 12.8-5.4 19.6 0l5.2 4v85.4c0 47 0.8 86.6 1.6 88 1.4 2 20.2 2.4 87.6 2l85.8-0.6v-464l-85.8-0.6c-67.4-0.4-86.2 0-87.6 2-0.8 1.4-1.6 55.8-1.6 120.8 0 133.2 1 124.8-15.4 124.8-15.6 0-14.6 8-14.6-130.8s-0.6-132.8 14.6-142.8l8.2-5.4 93.6-0.6c83.6-0.4 94.2-0.2 100 2.8 15.4 7.6 20 16 21.6 38l1 16.4 170-67.6h40.2c37.6 0 40.4 0.2 44.4 4 6.6 6.2 6 18.4-0.8 23.8-5 3.8-8 4.2-40.6 4.2h-35.2l-89.4 35.4-89.6 35.2v346.4l12.4 8c32 20.6 75.6 58 103.8 89.4 79.8 88.6 125.4 188.6 139 303.8 3.4 30 6.4 37.2 18.2 42.8 15.2 7.2 43.4-0.4 61.2-16.8 4.8-4.6 11.8-13.8 15.4-20.6 10.4-19.6 10.2-25-5.8-171.6-7.8-71-14.2-132.4-14.2-136.6 0-4.8 1.4-8.8 4-11.4 3.8-3.8 6.6-4 48.8-4 44.2 0 45 0 48 4.4 1.8 2.4 3.2 7.2 3.2 10.6s-1.4 8.2-3.2 10.6c-3 4.2-4.2 4.4-35 4.4-31.6 0-31.8 0-31.8 4.6 0 2.4 5.8 57.6 13 122.4 7.2 65 13 125.2 13 134 0 29.8-9.4 52.6-30.2 73.6-26.4 26.4-68.2 38.4-96.2 27.6zM710.2 540.8c-5.2-6.8-5.4-12.8-0.2-19.4l4.2-5.2 220.8-1.2 9.4-4.6c33.6-16.6 39.6-58.2 12-82.4-15.6-13.8-17.2-14-122.8-14h-93.8l-4.8-5c-6.6-6.4-6.6-15.6 0-22l4.8-5 105.6-0.2c75.6 0 107.4-0.8 112-2.4 21-7.8 34.6-26.6 34.6-47.8 0-6.4-1.2-14.6-2.8-18.4-3.8-9.2-14.4-20.8-24-25.8-8-4.4-9.8-4.4-117.8-5.4l-109.8-1-3.8-4.8c-5.2-6.4-5-16.4 0.8-21.8 4.4-4.2 5.8-4.2 96.4-4.8 101.4-0.6 98.6-0.4 113.8-13.6 26.4-23.2 21-63.4-10.8-81l-11-6-92-0.6c-90.6-0.6-92-0.6-96.4-4.8-5.8-5.4-6-15.4-0.8-21.8l3.8-4.8 66.8-1c75.8-1.2 75.4-1 91-18.8 20.8-23.8 14.8-58.2-13-74.6l-9.4-5.6-333.4-2-3.8-4.8c-5.4-6.6-4.8-15.4 1.2-21.4l5-5 337 1.2 13.4 6.4c17.6 8.2 32 22.6 40.2 40.2 6 12.4 6.4 14.8 6.2 34.4 0 21.8-2.8 32-12.8 46l-4 5.6 7.6 1.4c22.8 4.2 44.6 21.6 55.8 44.6 7.2 14.6 7.6 16 7.6 35.2 0 17.8-0.6 21.6-5.6 32.2-3 6.4-7.8 14.6-10.4 18l-4.6 6.4 6.8 2.4c11.4 4.2 30 23 37.2 37.8 6.2 12.8 6.6 14.4 6.6 36.4 0 21-0.4 24-5.4 34-7 14.2-17.2 26.2-28.4 33.2l-9 5.6 7.2 7.8c3.8 4.4 9.4 13 12.4 19.2 4.6 10 5.2 13.6 5.2 33.2 0 19.8-0.6 23.2-5.4 33.6-7.6 16-23.4 32-39.4 40l-13.2 6.4-232.6 1.2-4.2-5.4zM100 158.2c-7.6-2.8-13.8-6.8-20.4-13.8-38.8-40.6 3.2-105.6 56.6-87.4 27.4 9.4 42.4 40.4 33 68.2-9.2 28-40.8 43-69.2 33zM127 127.2c7-3 13-11.8 13-19.2 0-10.6-11.4-22-22-22-12 0-23.6 14.2-21 25.8 0.6 3.2 3.6 8 6.6 10.6 8.6 8.2 13 9 23.4 4.8z" />
<glyph unicode="&#xe924;" glyph-name="service-3-icon" d="M430.080 928.142c-30.72-28.444-35.271-40.96-35.271-86.471 0-96.711 91.022-155.876 177.493-114.916 50.062 23.893 80.782 83.058 71.68 136.533-18.204 92.16-141.084 129.707-213.902 64.853zM260.551 774.542c-78.507-52.338-170.667-211.627-151.324-261.689 7.964-21.618 39.822-34.133 64.853-23.893 10.24 3.413 26.169 31.858 36.409 62.578 11.378 34.133 40.96 80.782 75.093 117.191 59.164 64.853 69.404 101.262 34.133 119.467-15.929 9.102-30.72 5.689-59.164-13.653zM706.56 782.507c-34.133-25.031-29.582-43.236 22.756-92.16 46.649-43.236 101.262-134.258 101.262-168.391 0-9.102 12.516-22.756 28.444-30.72 36.409-15.929 62.578 4.551 62.578 50.062 0 67.129-92.16 208.213-159.289 242.347-26.169 13.653-34.133 13.653-55.751-1.138zM448.284 674.418c-73.956-21.618-143.36-143.36-106.951-186.596 30.72-36.409 91.022-13.653 91.022 34.133 0 37.547 35.271 62.578 87.609 62.578 50.062 0 72.818-18.204 91.022-73.956 9.102-27.307 18.204-35.271 46.649-37.547 29.582-3.413 36.409 1.138 43.236 25.031 10.24 42.098-2.276 80.782-42.098 126.293-50.062 55.751-126.293 75.093-210.489 50.062zM104.676 407.040c-13.653-9.102-32.996-32.996-43.236-52.338-52.338-101.262 76.231-220.729 175.218-161.564 114.916 67.129 72.818 232.107-59.164 232.107-26.169 0-59.164-7.964-72.818-18.204zM763.449 395.662c-45.511-37.547-56.889-96.711-29.582-147.911 43.236-80.782 146.773-94.436 203.662-26.169 38.684 45.511 46.649 81.92 29.582 125.156-34.133 80.782-136.533 105.813-203.662 48.924zM375.467 166.969c-32.996-22.756-25.031-61.44 17.067-81.92 43.236-21.618 192.284-22.756 241.209-3.413 38.684 17.067 52.338 45.511 35.271 75.093-9.102 15.929-23.893 17.067-104.676 11.378-56.889-4.551-109.227-3.413-129.707 4.551-26.169 9.102-39.822 7.964-59.164-5.689zM95.573 130.56c-63.716-28.444-95.573-76.231-95.573-142.222 0-52.338 0-52.338 38.684-52.338s52.338 14.791 52.338 56.889c0 30.72 43.236 56.889 92.16 56.889 45.511 0 65.991-18.204 84.196-72.818 9.102-28.444 18.204-36.409 47.787-38.684 30.72-3.413 37.547 1.138 44.373 25.031 15.929 64.853-40.96 150.187-119.467 176.356-53.476 17.067-89.884 15.929-144.498-9.102zM779.378 138.524c-73.956-26.169-130.844-112.64-114.916-175.218 6.827-23.893 13.653-28.444 44.373-25.031 29.582 2.276 38.684 10.24 47.787 38.684 18.204 54.613 38.684 72.818 84.196 72.818 48.924 0 92.16-26.169 92.16-56.889 0-42.098 13.653-56.889 52.338-56.889s38.684 0 38.684 52.338c0 116.053-124.018 192.284-244.622 150.187z" />
<glyph unicode="&#xe925;" glyph-name="service-1-icon" d="M356.124 920.178c-34.133-34.133-38.684-44.373-35.271-87.609 3.413-45.511 5.689-48.924 36.409-48.924 20.48 0 36.409 7.964 42.098 20.48 5.689 10.24 14.791 28.444 20.48 39.822 12.516 26.169 170.667 28.444 183.182 2.276 26.169-56.889 31.858-62.578 63.716-62.578 30.72 0 32.996 3.413 36.409 48.924 3.413 43.236-1.138 53.476-35.271 87.609l-39.822 39.822h-232.107l-39.822-39.822zM142.222 686.933c-59.164-28.444-76.231-42.098-112.64-95.573-29.582-44.373-29.582-45.511-29.582-265.102 0-234.382 4.551-258.276 61.44-319.716 56.889-63.716 91.022-70.542 324.267-70.542 185.458 0 216.178 2.276 221.867 18.204 10.24 27.307 9.102 35.271-11.378 55.751-15.929 15.929-46.649 18.204-208.213 15.929-225.28-2.276-251.449 5.689-287.858 88.747-19.342 45.511-21.618 70.542-18.204 224.142 3.413 191.147 11.378 215.040 80.782 258.276 34.133 20.48 54.613 21.618 354.987 19.342 291.271-3.413 320.853-5.689 350.436-25.031 44.373-29.582 64.853-75.093 64.853-142.222 0-45.511 4.551-60.302 25.031-73.956 17.067-12.516 29.582-13.653 45.511-5.689 17.067 9.102 20.48 25.031 20.48 94.436 0 71.68-4.551 89.884-29.582 127.431-36.409 53.476-53.476 67.129-112.64 95.573-42.098 20.48-72.818 22.756-369.778 22.756s-327.68-2.276-369.778-22.756zM199.111 452.551c-19.342-20.48-14.791-78.507 11.378-129.707 61.44-119.467 269.653-174.080 253.724-67.129-2.276 19.342-15.929 28.444-58.027 38.684-67.129 17.067-108.089 53.476-117.191 106.951-4.551 22.756-12.516 47.787-19.342 55.751-14.791 19.342-47.787 17.067-70.542-4.551zM624.64 399.076c-62.578-42.098-89.884-92.16-89.884-166.116 0-50.062 6.827-73.956 28.444-106.951 78.507-114.916 251.449-114.916 329.956 0 21.618 32.996 28.444 56.889 28.444 106.951 0 73.956-27.307 124.018-89.884 166.116-53.476 36.409-153.6 36.409-207.076 0zM800.996 298.951c15.929-19.342 29.582-48.924 29.582-65.991 0-70.542-87.609-124.018-149.049-91.022-40.96 21.618-54.613 45.511-55.751 93.298 0 94.436 113.778 136.533 175.218 63.716z" />
<glyph unicode="&#xe926;" glyph-name="service-2-icon" d="M703.147 933.831c-86.471-52.338-111.502-112.64-111.502-270.791 0-102.4 2.276-112.64 23.893-125.156 18.204-9.102 30.72-9.102 51.2 2.276 21.618 11.378 38.684 11.378 89.884-1.138 146.773-35.271 267.378 58.027 267.378 207.076 0 131.982-80.782 213.902-211.627 213.902-50.062 0-78.507-6.827-109.227-26.169zM897.707 833.707c40.96-39.822 46.649-92.16 18.204-147.911-28.444-53.476-91.022-68.267-177.493-42.098l-44.373 12.516v73.956c0 67.129 3.413 75.093 35.271 105.813 51.2 47.787 119.467 46.649 168.391-2.276zM147.911 890.596c-63.716-28.444-97.849-60.302-126.293-114.916-19.342-37.547-21.618-68.267-21.618-276.48 0-193.422 3.413-241.209 18.204-270.791 26.169-51.2 60.302-86.471 112.64-113.778 43.236-23.893 59.164-25.031 381.156-25.031s337.92 1.138 381.156 25.031c52.338 27.307 86.471 62.578 112.64 114.916 14.791 28.444 18.204 63.716 15.929 164.978-3.413 122.88-4.551 127.431-29.582 130.844-48.924 6.827-59.164-14.791-59.164-127.431 0-117.191-18.204-162.702-78.507-193.422-51.2-27.307-643.982-27.307-695.182-1.138-64.853 32.996-79.644 87.609-79.644 295.822 0 154.738 3.413 188.871 21.618 229.831 34.133 73.956 64.853 84.196 263.964 86.471 137.671 2.276 172.942 5.689 180.907 19.342 15.929 25.031 13.653 40.96-6.827 61.44-14.791 14.791-46.649 18.204-178.631 18.204-137.671 0-169.529-3.413-212.764-23.893zM352.711 751.787c-76.231-26.169-112.64-121.742-72.818-190.009 39.822-67.129 117.191-86.471 184.32-45.511 134.258 81.92 38.684 285.582-111.502 235.52zM324.267 453.689c-78.507-28.444-136.533-122.88-108.089-177.493 22.756-40.96 91.022-20.48 91.022 26.169 0 32.996 42.098 65.991 83.058 65.991 48.924 0 63.716-11.378 81.92-63.716 13.653-39.822 19.342-44.373 53.476-44.373 35.271 0 37.547 3.413 40.96 39.822 3.413 44.373-28.444 102.4-77.369 137.671-39.822 29.582-110.364 36.409-164.978 15.929zM291.271 12.231c-12.516-9.102-19.342-26.169-15.929-43.236l3.413-27.307h466.489l3.413 27.307c7.964 51.2-18.204 58.027-236.658 58.027-146.773 0-205.938-3.413-220.729-14.791z" />
<glyph unicode="&#xe927;" glyph-name="talent-management1" d="M454 957.8c-10.4-1.2-16-3-18.8-5.6-3-3-5.4-13.8-11.2-48-4-24.4-7.8-44.6-8.4-45.2s-8.6-3.2-17.8-5.8c-33-9.2-69.6-24.6-97.6-41l-10.4-6.2-36.4 26c-45.6 32.6-43.2 32.2-69.6 10.2-21.6-18-54.2-50.8-70.6-71-16.6-20.8-16.8-20.6 14.8-64.6l26-36.4-6-10.4c-16-27-32.8-66.4-40.8-96.2-2.8-10-5.6-18.6-6.2-19.2s-20.8-4.4-45.2-8.4c-34-5.8-45-8.2-47.8-11.2-5.4-5.4-8-30.2-8-76.8s2.6-71.4 8-76.8c2.8-3 13.8-5.4 47.8-11.2 24.4-4 44.6-7.8 45.2-8.4s3.4-9.2 6.2-19.2c8-29.8 24.8-69.2 40.8-96.2l6-10.4-26-36.4c-31.6-44-31.4-43.8-14.8-64.6 16.4-20.2 49-53 70.6-71 26.4-22 24-22.4 69.6 10.2l36.4 26 12.4-7.2c20.4-12 49-24.6 76.8-34 14.2-4.8 27.4-8.8 29-8.8 7.4-0.2 8.6-4 16-48 5.6-34 8.2-45.2 11.2-48 5.2-5.4 30.8-8 76.8-8s71.6 2.6 76.8 8c3 2.8 5.4 13.8 11.2 47.8 4 24.4 7.8 44.6 8.4 45.2s9.2 3.4 19.2 6.2c29.8 8 69.2 24.8 96.2 40.8l10.4 6 36.4-26c45.6-32.6 43.2-32.2 69.6-10.2 21.6 18 54.2 50.8 70.6 71 16.6 20.8 16.8 20.6-14.8 64.4l-25.8 36.2 10.8 19.8c16.2 29.2 31 66.6 39 98.2 1.6 6.4 3.4 8.8 6.6 9.6 2.4 0.4 22.4 3.8 44.2 7.2 48.8 8 48.2 7.6 51.2 31.8 2.6 21.8 2.6 90.2 0 112-3 24.2-2.4 23.8-51.2 31.8-21.8 3.4-41.8 6.8-44.2 7.2-3.2 0.8-5 3.2-6.6 9.6-8 31.6-22.8 69-39 98.2l-10.8 19.8 25.8 36.2c31.6 43.8 31.4 43.6 14.8 64.4-16.4 20.2-49 53-70.6 71-26.4 22-24 22.4-69.6-10.2l-36.4-26-10.4 6c-27 16-66.4 32.8-96.2 40.8-10 2.8-18.6 5.6-19.2 6.2s-4.4 20.8-8.4 45.2c-5.8 34-8.2 45-11.2 47.8-2.8 2.8-8.8 4.4-21.8 6-21.2 2.4-91.6 2.2-113-0.2zM555.4 926.8c9.6-1.2 8 4 16.6-48.8 3.4-20.4 6.6-38.6 7.2-40.6 1.4-4.8 6.8-7.2 24.6-11.4 35.4-8.6 75-25 108.2-44.6 10.4-6.4 20.8-11.4 23.2-11.4s20.8 11.8 41 26c20 14.4 37.4 26 38.4 26 2.4 0 71.4-69 71.4-71.4 0-1-11.6-18.4-26-38.4-14.2-20.2-26-38.6-26-41 0-2.2 4.6-11.8 10.2-21.2 20.6-34.8 36.6-73.4 44.8-108 4.4-18 7.8-25.4 12.4-26.8 2-0.6 22.4-4.2 45.4-8 22.8-3.8 42.2-7.6 43-8.2 1.6-1.8 1.6-100.2 0-102-0.8-0.6-20.2-4.4-43-8.2-23-3.8-43.4-7.4-45.4-8-4.6-1.4-8-8.8-12.4-26.8-8.2-34.6-24.2-73.2-44.8-108-5.6-9.4-10.2-19-10.2-21.2 0-2.4 11.8-20.8 26-41 14.4-20 26-37.2 26-38 0-2.2-46.6-50.2-60.2-62l-12-10.4-13.4 9.4c-7.4 5.2-24.2 17-37.2 26.4-13 9.2-25.8 16.8-28 16.8-2.4 0-12.8-5-23.2-11.2-33-19.8-73.2-36.2-108.2-44.8-17.8-4.2-23.2-6.6-24.6-11.4-0.6-2-4.2-22.4-8-45.4-3.8-22.8-7.6-42.2-8.2-42.8-3.4-3.4-98.6-3.4-102 0-0.6 0.6-4.4 20-8.2 42.8-3.8 23-7.4 43.4-8 45.4-1.4 4.6-8.8 8-26.8 12.4-34.2 8-73.4 24.4-108 45-9.4 5.4-19 10-21.2 10-2.4 0-20.8-11.6-41-26-20-14.2-37.4-26-38.4-26-2.4 0-71.4 69-71.4 71.4 0 1 11.8 18.4 26 38.4 14.4 20.2 26 38.6 26 41s-5 12.8-11.2 23.2c-19.4 32.6-35.6 71.4-43.6 105-4.6 18.8-7 24.8-11.4 27-1.8 1.2-22.6 5.2-46 9s-43 7.6-43.6 8.2c-1.6 1.4-1.6 100.2 0 101.6 0.6 0.6 20.2 4.4 43.6 8.2s44.2 7.8 46 9c4.4 2.2 6.8 8.2 11.4 27 8 33.6 24.2 72.4 43.6 105 6.2 10.4 11.2 20.8 11.2 23.2s-11.8 20.8-26 41c-14.4 20-26 37.4-26 38.4 0 2.4 69 71.4 71.4 71.4 1 0 18.4-11.8 38.4-26 20.2-14.2 38.6-26 41-26 2.2 0 11.8 4.6 21.2 10.2 34.8 20.6 73.4 36.6 108 44.8 18 4.4 25.4 7.8 26.8 12.4 0.6 2 4.2 22.4 8 45.4 3.8 22.8 7.6 42.2 8.2 42.8 3 3 72.4 4 94.4 1.2zM457.8 805c-51.6-8.2-102.6-27.8-145.8-56.6-37.8-25.2-45-35.6-33-47.4 7-7.2 14.8-6.4 26.4 2.6 88.2 69.6 202.6 91 306.8 57.2 28.2-9 66.8-28.6 91.8-46.4 24.2-17.2 57.2-50.2 74.4-74.4 17.8-25 37.4-63.6 46.4-91.8 10.8-33.2 15.2-62.4 15.2-100.2 0-54.8-10.6-99.8-35.2-148-17-33.2-35.2-58.4-60.8-84-62.4-62.4-144-96.2-232-96.2-69.4 0-134.8 21-192 61.8-24.2 17.2-57.2 50.2-74.4 74.4-28.4 39.8-49.6 90.6-57.6 137.4-5.4 31.6-5.4 77.8 0 109.8 9 52.8 33.6 107.4 68.4 151.4 9 11.6 9.8 19.4 2.6 26.4-7.8 8-16 6.8-25.4-3.4-12.4-13.2-34.8-48-45.6-70.6-12-24.4-24.2-60.6-30-88-5.6-25.8-7.6-87.6-4-116.4 17-136.8 112.2-253 243-296.4 44.8-15 59.4-17 115-17 43.4 0 51.4 0.4 70 4.4 130.6 28.4 231 116.8 271.8 239.6 15 44.6 17 59.2 17 114.8 0 43.4-0.4 51.4-4.4 70-10.4 47.6-29.4 93.4-54.2 130.2-57.6 86-145.2 141.4-247.8 156.8-24.2 3.6-82.8 3.6-106.6 0zM467.4 684.8c-94.8-17.2-172-93-191.2-188.2-5.8-28-5.8-69.2 0-97.2 19.4-96.4 96.8-171.6 193.6-188.4 21.8-3.8 63-3.8 85.4 0 95.8 16.8 173.2 92.4 192.6 188.4 5.8 28 5.8 69.2 0 97.2-19.6 96.4-96.6 171.6-192.6 188.4-22 3.8-66.4 3.6-87.8-0.2zM535 655.2c40-3.2 85-23.6 118.4-54 26.8-24.4 51-64.8 61-101.2 4-14.6 4.6-21.8 4.6-52 0-40.8-3.2-56.2-18.2-87.8-21.2-44.8-55.2-79-99.8-100.4-91.8-43.8-200-15-260 69.2-12 16.6-25.6 46-31.4 67-4 14.8-4.6 21.6-4.6 52 0 40.6 3.2 56 17.8 87.2 11.8 24.8 23 40.8 42 60 35.4 35.2 80.8 56.6 128.8 60.6 9.6 0.8 19.6 1.2 22.4 1 2.8-0.4 11.4-1 19-1.6zM500.6 623.6c-2.2-2.6-13.8-24.6-25.6-49.2-16.4-33.8-22.8-44.8-25.8-45.4-2.4-0.6-26.2-4.2-53.2-8-34.4-5-49.8-8-52.4-10.4-2.4-2-3.6-6.2-3.6-11.4-0.2-8 0.6-8.8 38-45.2l38.2-37-8-47.2c-9.2-52.8-9.8-61.8-4.6-66.4 8.8-8 11.8-7 60.2 18.4 25.2 13.4 47 24.2 48.2 24.2s22.8-10.8 47.8-24c25-13.2 47.4-24 49.6-24s6.4 1.8 9.4 4.2c7.2 5.6 6.8 10.8-3 67.6l-8 47.2 38.2 37c34.6 33.6 38.2 37.6 38 43.6 0 9.4-3 13.8-10.4 16.2-3.6 1-26.4 4.8-50.6 8.2s-45.8 6.4-48.2 7c-3.2 0.6-9.2 11.6-25.6 45.4-11.8 24.6-23.4 46.6-25.8 49.2-2.8 3-6.4 4.4-11.4 4.4s-8.6-1.4-11.4-4.4zM530 539.8c9.4-18.8 18.6-35.4 20.4-37 2-2 17.2-5.2 42-9 21.2-3.2 39.4-5.8 40.2-5.8s-11.4-12.6-27.2-28c-16-15.4-29.6-30.2-30.2-32.8-0.6-2.4 2-22 5.6-43.4 3.8-21.4 6.6-39 6.4-39.2 0-0.2-15.6 7.8-34.2 17.8-24.6 13.2-36 18.2-41 18.2s-17-5.4-41-18.2c-18.6-9.8-34.2-17.8-34.2-17.8-0.2 0.2 2.6 17.8 6.4 39.2 3.6 21.4 6.2 41 5.6 43.4-0.6 2.6-14.2 17.4-30.2 32.8-15.8 15.4-28 28-27.2 28s19 2.6 40.2 5.8c25.4 3.8 39.8 6.8 42 8.8 1.8 1.8 11 18.4 20.4 37.2 9.2 18.8 17.4 34.2 18 34.2s8.8-15.4 18-34.2z" />
<glyph unicode="&#xe928;" glyph-name="welfare" d="M505 926.4c-4.8-0.6-308.2-105.2-344.4-118.8-13.8-5-23-13-28.4-24.8l-4.4-9 0.6-221.4c0.6-221.2 0.6-221.4 5.2-241.2 20.4-90.2 70-164 142.4-212 22.2-14.8 209.4-120.8 220-124.4 9-3.4 23-3.4 32.2 0 4 1.4 32 16.6 62.6 33.8 30.4 17.2 55.8 31.4 56.4 31.4 0.4 0 6.8-6.2 13.8-13.8 22.8-24 54-42.8 88.2-52.6 13.8-4 20.2-4.6 50.8-4.6s37 0.6 50.8 4.6c66.8 19.4 116.2 68.8 135.6 135.6 4 13.8 4.6 20.2 4.6 50.8s-0.6 37-4.6 50.8c-13 45.2-42.8 86.4-79.4 110l-12 7.6 0.6 222.4c0.6 244.6 1.4 229.2-11.6 243.8-3.2 3.8-10.2 8.8-15.4 11-18.8 8-343.8 119.8-350.6 120.8-3.8 0.4-9.6 0.4-13 0zM684 834c121.2-42 170.4-59.8 174-63.4l5-4.6v-209c0-136.6-0.6-209.4-2-210.8-1.4-1.2-6.6-0.8-15.4 1.4l-13.6 3.2v187.6c0 154.8-0.4 188.8-2.8 194.4-3.8 9.2-14 20.2-22.6 24.2-4 2-69.2 26.4-145 54.2-122 45-139.2 50.8-149.6 50.8s-27.4-5.8-150-51c-76-28-141.4-52.4-145.2-54.2-8-3.8-18.2-15-22-24-2.4-5.6-2.8-39.6-2.8-194.6 0-177 0.2-189.2 3.8-207.8 12.6-64.6 50-123.6 102.2-160.8 7.2-5 54.2-33 104.8-62.4 67.2-38.8 94-53.4 100.4-54.4 17-2.4 24.2 0.2 68.8 26l42.8 24.8 6.8-17c3.6-9.2 6.4-17.2 6-17.4-7.2-5.4-112.8-63.2-115.6-63.2-4 0-194.2 106.6-215 120.6-66 44-111.6 111-129.2 189.4-6.8 30.6-8 73-7.4 265.4l0.6 184.4 4.4 4.6c3 3 57.8 23 175 63.8 93.8 32.8 171.6 59.2 172.6 59 1.2-0.4 78-27 171-59.2zM644.8 780.8c70.6-26 133-49 138.8-51.2 8.6-3.2 11.4-5.4 13.6-10.8 2.4-5.6 2.8-34 2.8-167.2 0-88.4-0.6-169.2-1.2-179.8l-1.4-19.2-17.2-1.2c-64.6-4.4-126.8-48.6-155.2-110-11.8-25.6-15.4-41.2-16.4-73.4l-1.2-29-38-22c-54.6-31.6-55.4-31.8-61.4-29.6-7.8 3-164.4 93.6-183.8 106.4-39.6 26.2-72 68.4-87.2 114.2-11.8 35.6-11.6 29.6-12.4 223-0.6 128.6-0.2 180.2 1.4 185.6 1.4 5 4 8.4 7.4 10 17.2 7.8 272.6 101 277.4 101.2 3.2 0 63.6-21 134-47zM839 314c16.2-4 42.8-17.4 58.4-29.2 18.6-14.4 32.6-31.6 43.8-53.8 27.6-56 21.6-118.8-16.6-168.6-20.6-26.8-56.8-49.8-90.4-57.4-20.8-4.6-51-4.2-71.2 1-20.8 5.2-48.8 19.2-64.4 32-24.6 20.4-46.4 56-53.4 87.4-4.6 20.4-4.2 52 0.8 71.8 5.2 20.4 19.2 48.6 31.6 63.6 38.8 46.6 102 67.4 161.4 53.2zM379 667.8c-46.6-7.2-86-36.4-106.2-78.8-10-21-13.6-36.8-13.6-61 0-40.2 13.4-71.8 43.6-103.4l8-8.6h-54.8v-32h87l169-169 169 169h87v32h-54.2l11.6 13c13.4 15 24.8 33 30.8 48.8 25.8 68.2-5.4 146.4-70.4 177.2-55.4 26-113.6 16.6-161-25.8l-13.2-11.8-8.2 8c-21.2 20.2-43.8 33.2-68 39.4-15.2 4-41.6 5.4-56.4 3zM421 633c24.8-5.2 37.2-13 65.6-40.6l25.4-25 25.6 25c19.4 19 28.6 26.4 38.4 31.2 13.4 6.6 35.8 12.4 48 12.4 3.8 0 13.4-1.4 21-3 57.6-12.2 96-69.2 84.2-125-5.4-25.8-12.8-38-40.8-66.4l-25-25.6h-28.4l-28 56c-15.4 30.8-28.6 55.8-29.4 55.6-1-0.4-15.8-22-33.2-48l-31.6-47.4-48.8 81.8c-27 45-49.8 81.6-50.8 81.4-0.8-0.4-15.4-35.2-32.4-77.4-16.8-42.4-31.6-79.2-32.8-81.8-2.2-4.8-2.4-4.8-16.4 9-27.6 27-38.6 51-38.2 83.8 0.4 58 47.4 105 106.6 106.8 3.8 0 13.4-1.2 21-2.8zM511 370.8c1.2-0.4 15.4 19.6 31.8 44.2 16.4 24.8 30.4 45 31 45 0.8 0 9.8-17 20.2-38l18.8-37.8 17.2-1.2-118-118-69.8 70-70 70 46.8 116.4 45-75c24.8-41.2 46-75.4 47-75.6zM719 240l-12-12 68-68-68-68 12.6-12.4 12.4-12.6 68 68 68-68 12.4 12.6 12.6 12.4-68 68 68 68-12.6 12.4-12.4 12.6-68-68-33.6 33.6c-18.4 18.4-34 33.4-34.4 33.4-0.6 0-6.4-5.4-13-12z" />
<glyph unicode="&#xe929;" glyph-name="risk1" d="M483 958c-11-4.4-15-12.4-23.6-46.6l-8.4-33-20.8-5.4-20.8-5.6-23.2 24.2c-12.8 13.4-25.2 25.2-27.6 26.2-2.4 1.2-8.8 2.2-14 2.2-8.4 0-12.8-1.8-30.2-12-21.4-12.6-28.4-20.8-28.4-33 0-2.8 4-19.4 9-36.6l9-31.4-31-30.6-30 8.8c-50 14.6-53.4 13.2-76.4-28.4-6.2-11.6-7-14.2-6.2-24l1-11 51.2-51.6-4.2-14.6c-2.4-8-4.4-16-4.4-17.6 0-6.6-4.8-8.8-35-16-31.6-7.6-38.2-10.6-45.8-20.8-3.8-5-4.2-8.4-4.2-32.8 0-41.4 1.8-43.4 51-55.4 17-4.2 31.2-7.8 31.4-8 0.4-0.2 3-9.6 5.8-20.8l5.4-20.6-24-22.8c-13.2-12.4-25.2-25.4-26.6-28.8-4.4-10.8-1.6-23.4 9.6-42.2 19.2-32.4 22.8-33.4 72-19.6 28.4 8 33.4 8.4 35.6 3.2 0.6-1.6-40.6-72-91.4-156.6s-94.4-158.4-97-164c-15.6-33.4-0.8-73.6 32.8-90.2l11.4-5.6h756l9.6 4.8c13.2 6.6 25.6 19.2 32.6 33.2 4.8 10.2 5.8 14.4 5.8 28 0 10.8-1.2 18.8-3.6 24.6-1.8 4.8-44.8 77.8-95.2 162-50.4 84.4-92.6 155.6-94 158.2-2.2 3.8-2 5.2 0.6 7.8 2.8 2.8 5.8 2.4 33.6-5.6 33.2-9.4 43.2-10.4 52.8-5.4 6.2 3.2 17.2 18.6 26.6 37.2 4.8 9.2 5.8 21.8 2.6 30.2-1 2.8-12.8 15.6-26.2 28.6l-24.2 23.6 5.4 20.6 5.4 20.8 31.4 7.4c17.2 4 34.2 9 37.6 11.2 11.4 6.8 14.6 18 13.8 46.8-1 36.6-4.2 40-52 51.6l-31 7.6-10.8 40.8 23.8 23c13.2 12.6 25 25.2 26.4 27.8 4.6 9 3 22.8-4.2 35.6-16.2 28.8-24.4 36.6-38.4 36.6-5.8 0-48.2-10.8-66.6-17-1.2-0.4-9 6.2-17.4 14.6l-15 15.4 8.8 30c9.4 32.4 10.2 39.6 6 49.6-3.4 8.4-6.6 11-28.2 23.2-18.4 10.6-28.4 12.6-39.6 8.4-2.6-1-15.6-13-28.8-26.4l-24-24.4-16.8 4.4c-9.2 2.6-18.6 5.4-20.8 6.2-3.2 1.2-5.4 6.8-10.8 29.2-12 50.4-14.6 52.8-53.4 52.6-14.2 0-27.6-0.8-29.8-1.8zM533 890.4c10.4-41.4 11.2-42.4 42.2-50.2 12-3.2 25.8-6.8 30.8-8.2 17.4-5 22-2.6 50 25.2l25 25 8.8-4.6c4.8-2.6 9-5.6 9.6-6.8 0.4-1.2-2.8-15-7.2-30.4-8.4-28.8-10-41.4-6-49 3.2-6.4 41.8-45.2 48.2-48.6 8.6-4.6 20-3.4 50 5.4 15.4 4.4 29.2 7.6 30.6 7 1.4-0.4 4.6-4.8 7.2-9.4l4.8-8.6-24.6-24c-27.4-26.6-30.8-32.6-27-47.8 7.4-29.4 14.8-54.4 17.6-58.6 4.6-7.2 11-9.6 45.6-18l31.4-7.6v-13.6c0-13.2-0.2-13.6-5.4-14.8-22.6-5.2-54.6-13.2-58.8-15-11-4.4-15.6-12-21.8-36-3.2-12.6-7-26.6-8.4-31.2-4.4-15.4-0.6-22.2 27.2-48.8l24.2-23.4-4.8-8.6c-2.6-4.8-5.4-9.4-6-10.2s-15.2 2.6-32.2 7.6c-17 4.8-33.2 8.8-36.2 8.8-2.8 0-9.6-2.2-14.8-5-5.4-2.6-10-4.6-10.2-4.4s-7.2 11.6-15.4 25.4l-15 24.8 5.6 8.2c16 23.2 29.8 59.2 34 88.8 3.8 26 1.6 68.6-5 92.2-21.2 77-80.4 136-158 157.2-18.4 5.2-22.8 5.6-57 5.6s-38.6-0.4-57-5.6c-82.6-22.6-143.6-87-161.2-170.2-4.6-22.6-5-63.8-0.8-86.4 5.4-28 18.4-60.2 32.8-81.2l6-8.8-14.6-24.2c-8-13.4-15-25-15.8-25.6-0.6-0.6-3.8 0.8-7 3.2-10.4 7.6-18.4 7.2-53.2-2.8-17.6-5-32-9-32.2-8.6-0.2 0.2-3 4.8-6 10.2l-5.6 9.8 24.2 23.2c13.4 12.8 25.4 25.8 26.4 28.8 2.8 8 2.4 17.6-1.2 27.6-1.6 4.8-4.8 16.4-7.2 25.8-7 29.8-9.6 31.8-55 43l-30.6 7.4v26.6l28.6 6.8c33.6 7.8 43.4 11.8 48.8 19.4 3.6 5.4 15.8 47.4 18 62.2 1.8 12.2-1.2 17-26.8 42.8l-25 25.4 5.4 9.2c3 5 6.4 9.2 7.6 9.2 1.4 0 15-3.6 30.4-8 29-8.2 40.8-9.6 48.4-5.4 2.4 1.4 14.2 12.2 26.4 24 29.8 29.2 29.6 28.2 17.4 71.2-5.2 18-8.6 33.4-7.8 34.2s5.4 3.6 10.2 6.2l8.6 4.8 23.4-24.4c24.4-25.2 32.2-30.2 44-28 14.4 2.6 54 13.6 59.4 16.4 9.8 5.2 13 11.6 21.4 45.2l8.2 32 24-1.2 8.4-32.6zM559.8 748.2c64.2-18.8 112-65.8 131.4-129.2 5-16.4 5.6-21 5.6-50 0.2-34.6-2.6-49.2-14.4-76-11-25-4.4-31.8-62 64.4-55.6 93.4-61.2 100.8-81.2 108.4-15.4 5.8-37 5.8-52.6 0-21-8-26-14.6-82.2-108.2-50.8-84.4-51.4-85.6-54.8-81-4.2 5.6-14.6 31.4-19.2 48-4.8 17.6-4.8 69.2 0.2 87.2 19.6 71.8 73.2 123 144.6 139 20.2 4.6 64.8 3 84.6-2.6zM532 627.8c4.6-3.4 36.2-54.6 102.8-166 292.2-488.8 268-447.4 268-457.6 0-12-6.6-23-17-28.2-7.6-4-13.6-4-372.8-4-302.2 0-366.2 0.4-371.6 2.8-15.8 6.4-24.6 25.6-18.6 40 2.8 6.6 356 597 363 606.6 9.8 13.2 33.2 16.6 46.2 6.4zM503 482c-16.6-2.8-29.8-12.2-37.6-26.8-4.4-8.2-4.4-8.6-4.4-126.2 0-131-0.6-124.4 13.4-138.8 11-11.2 20.6-15.2 37.6-15.2s26.6 4 37.6 15.2c14 14.4 13.4 7.8 13.4 138.8 0 117.6 0 118-4.4 126.2-10.6 20-32.6 30.6-55.6 26.8zM523.8 440.8c4.2-5.2 4.2-7.2 4.2-111 0-74.2-0.6-107-2.2-110.6-5.2-11-22.4-11-27.6 0-1.6 3.6-2.2 36.4-2.2 110.6 0 103.8 0 105.8 4.2 111 3.2 4 5.8 5.2 11.8 5.2s8.6-1.2 11.8-5.2zM499 140.2c-38.4-10-52-59.4-24-87.2 11.6-11.6 23.4-15.8 40.8-14.6 22.4 1.6 38 13.2 45.2 33.4 8.6 24.6-2.4 52.6-25.4 64.4-8.4 4.4-27.6 6.4-36.6 4zM522.2 100.2c3.4-3.6 5.8-8 5.8-11.2 0-7.2-8.2-15-16-15s-16 7.8-16 15c0 6.4 10 17 16 17 2.4 0 7-2.6 10.2-5.8z" />
<glyph unicode="&#xe92a;" glyph-name="location1" d="M640.8 957c-48.8-10.6-92.8-47.6-112.8-94.6-15.8-37.2-16.2-85.2-0.8-123.6 7-18 12.4-26.2 55-85 19.6-27 38.4-54.8 41.6-61.8 3.4-7 8-21.2 10.4-31.8 6.2-27.8 10.6-35.4 24.2-42.4 9.4-4.8 27.4-5 36.2-0.6 15.4 7.8 19.6 14.8 25.6 42.2 5.4 25.4 11.8 39 30.6 64.6 16 22.2 18.2 28.8 12.2 37.4-3.8 5.4-12.2 7.4-18.8 4.6s-33.6-40.4-43-59.8c-3.8-8-9-23.2-11.4-33.8-5.2-23.6-6.6-26.4-13-26.4-5.8 0-7 2.4-12.8 28-2.4 10.4-7.4 25.4-11 33-3.6 7.8-24.2 38.4-45.8 68-43.8 60.6-49.6 70.2-55.2 92.2-11.4 44.4 1.2 90.4 33.8 122.8 26 26 55 38 92 38 22.8 0 38.2-3.8 58.4-14.2 69.4-36 91.4-121.2 48.4-186.4-13.4-20.2-15-27.2-8-34.2 6-6 14.2-6.8 21-2 5.8 4 19.4 24.2 26.6 39.4 14.6 31.2 18.6 75.4 10 108.4-15.4 58.2-59.6 102.2-117.8 117.2-18 4.6-56.6 5-75.6 0.8zM654 880.8c-38.8-10.4-65-48.6-61.2-89.2 4.8-52.6 54.4-87.8 105.2-74.8 25.6 6.6 45 22.8 56.8 47.2 5.8 12.2 6.2 14.6 6.2 35 0 20.6-0.4 22.8-6.2 35-3.4 7.2-9.6 16.8-13.6 21.4-20.6 23.8-55.6 33.8-87.2 25.4zM695 848.6c6.2-2 13.4-6.8 19-12.6 25.8-25.6 19.2-67.6-13.2-84-13.2-6.6-34-7-46-0.6-39.8 21-40.4 73.8-1.2 94 14.8 7.6 26.2 8.6 41.4 3.2zM46 726.2c-17.8-5.4-32.8-18.8-40.8-36.2l-5.2-11v-694l5.8-12c7-14.6 17.6-25 32.2-31.8l11-5.2h926l12 5.8c14.8 7 25.2 17.6 32 32.4l5 11.2-0.4 348.8-0.6 348.8-5.4 10c-6.4 12-17.4 22.8-29.6 29.2-8.8 4.6-10.4 4.8-70.2 5.4l-61.4 0.6-4.2-5.4c-5.6-7-5.4-13.2 0.6-20.2l4.8-5.6 57-1c54-1 57.4-1.2 62.8-5.2 10.8-8 14.6-16 14.6-31v-13.8h-189.4l-4.2-4.6c-6.4-6.8-6-17.8 0.8-23.2 4.6-3.6 8.2-4.2 26-4.2 11.4 0 20.8-0.4 20.8-1 0-2-410.4-491-412.2-491-2 0-100.4 85.2-101.4 87.8-0.2 0.8 61.2 75.2 136.6 165.2 75.4 90.2 137.8 166 138.4 168.8 3 11.8-8 22.4-19.6 19-4.4-1.4-41-43.8-149.8-173.8-79.2-94.6-144.6-174.2-145.4-176.8-0.6-2.6-0.4-6.8 0.6-9.4s60.8-56.2 132.8-119c72-62.8 131.8-115 132.8-116 1.2-1-24.8-1.8-67-1.8h-68.8l-93 81c-51 44.6-95 81.6-97.8 82.4-2.8 0.6-7 0-10-1.6-2.8-1.6-34.4-38-70.4-80.8-35.8-42.8-66.6-78.6-68.2-79.6-1.6-1.2-8.8-1.4-16.2-0.6-15 1.6-23.8 6.6-30.8 17-4.2 6.2-4.6 9-4.6 34.2v27.2l59 70.6c32.4 38.8 59.6 72.6 60.2 75.2 1.4 5.4-3.6 16-8.2 17.8-1.8 0.6-5.8 1.2-8.8 1.2-7 0-10.6-3.8-62.2-65.8l-39-46.8-0.6 106.2c-0.2 58.6-0.2 154 0 212l0.6 105.8 205-179.2-36.8-43.6c-38.4-46-41.2-49.8-41.2-56.6 0-6.6 8.8-14 16.8-14 8.4 0 7.8-0.6 60 61.8 35.4 42.6 39.2 47.6 39.2 54.4 0 9.2 9 0.8-134.8 125.8l-109 95-0.2 24.6v24.4h41.6l41.4-0.2 108.4-94.6c59.4-52 110.2-95.2 112.6-95.8 2.6-0.6 7-0.2 10 1.2 3.4 1.4 36.6 39.6 83.4 95.4l77.8 93 22 1c12 0.6 23.2 1.8 25.2 2.8 1.8 0.8 4.4 4.2 5.6 7.4 3 6.8-0.2 16.6-6.2 19.8-2.2 1.2-100.6 2-262.6 2h-259.2v13.8c0 15.4 4.2 23.8 15.8 31.6l6.8 4.6h217.4c153.6 0 219.2 0.6 223.8 2.2 10.6 3.8 13.8 17 6.2 25.4l-4.2 4.4-223.4-0.2c-122.8 0-225.6-0.8-228.4-1.6zM462.8 611.6c-4.4-7.2-123.2-147.6-125-147.6-1.6 0-151.8 129.8-166.8 144.2l-6 5.8h149.6c119.2 0 149.4-0.6 148.2-2.4zM992 604v-10l-114-136c-119.4-142.6-118.2-141.2-111.2-151.2 1.6-2.2 52.8-47.6 114-101l111.2-96.8v-59.4c0-32.8-0.4-59.6-1-59.6s-57.4 49.2-126.6 109.6c-69 60.2-132.4 115.6-140.8 123-13.6 11.6-16.6 13.4-23.4 13.4-8 0-8.2-0.2-45-44.4-38.4-45.6-40.6-49.4-35.2-59.4 3-6 13-9.2 19.6-6.4 3 1.4 18 17.6 34.2 37l28.8 34.8 118.2-103.2c65-56.8 123.8-108.2 130.8-114.2 10.6-9.2 12-11.4 9-12.4-2-0.8-81.4-1.6-176.6-1.6l-173-0.2-29 25.2c-16 13.8-28.8 26-28.4 27 0.2 1.2 12.6 16.4 27.4 34 22.8 27.2 27 33 27 38.6 0 8.4-5.2 14.8-13.2 16.4-8.2 1.6-13.6-3.2-42.8-39-12.6-15.4-23.6-28-24.6-28-1.6-0.2-66 55.6-67 58-0.4 0.8 96.2 117.2 214.6 258.6l215.2 257.2h101.8v-10zM991.2 154.4c-1.4-1.2-187.4 161.8-186.8 163.6 0.4 1 42.4 51.8 93.6 113l93 111 0.6-193.2c0.2-106.4 0-193.8-0.4-194.4zM305.6 25l66.6-58-61.2-0.6c-33.6-0.2-88.6-0.2-122.2 0l-61.4 0.6 51.6 61.4c51.2 61.4 51.4 61.6 55.8 58 2.4-1.8 34.4-29.4 70.8-61.4z" />
<glyph unicode="&#xe92b;" glyph-name="24-hours1" d="M440.6 940.2c-4.8-0.8-9.2-2-10-2.8-1-1.2 2.6-31.4 4-32.4 0.2-0.2 7.4 0.6 16.2 1.6l15.6 2.2-1.2 11.8c-0.6 6.6-1.2 14.2-1.2 16.6 0 4.2-0.8 4.8-7.4 4.6-4.2-0.2-11.4-1-16-1.6zM381 927.8c-7.6-2.2-14.2-4.4-14.6-4.8-0.6-0.6 7.2-28.4 8.8-31.2 0.6-1.2 28.8 5.6 30.6 7.4 1.8 1.6-6.6 32.8-8.6 32.6-1.2 0-8.4-1.8-16.2-4zM318.6 906.4c-7-3-12.6-6.2-12.6-7.4 0-1.8 11.4-27.2 13-28.6 1.4-1.6 29 10.2 29 12.4 0 1.2-2.4 8.2-5.4 15.6-3.4 9.2-6.2 13.6-8.4 13.4-1.8 0-8.8-2.6-15.6-5.4zM262.6 878.2c-6.8-4-13-7.8-13.6-8.6-0.6-0.6 3-7.6 8-15.6l9.2-14.4 5.4 3.6c3 2 9.2 5.8 14 8.4l8.4 4.8-7.4 14.2c-4.2 7.8-8.4 14.4-9.6 14.6-1 0.2-7.6-2.8-14.4-7zM208.6 841.8c-7-5.4-12.6-10.4-12.6-11.2 0-0.6 4.2-6.2 9.4-12.4s9.6-11.6 10-12c1-1.4 9.2 3.6 18.4 11.6l8.8 7.4-9.8 13.4c-5.2 7.4-10 13.4-10.6 13.4-0.6-0.2-6.8-4.6-13.6-10.2zM454 844.8c-178.4-27.8-314.4-165-339-342-4.4-30.4-3.2-96.2 2-124.8 10.8-59.8 34.2-114.4 71.2-167 16.8-23.6 63.6-70.4 87.2-87 60-42 120.2-65.6 189-74 26.2-3.4 92.6-1.6 117.6 3 59.6 10.8 114.4 34.2 167 71.2 23.2 16.4 70.4 63.6 86.8 86.8 28.8 40.8 48.8 81.8 61.2 125 12 41.8 14 57.6 14 112 0 39-0.8 53-3.8 69-11.2 60.6-34 114.6-71.2 167.6-16.6 23.6-63.4 70.4-87 87.2-52.6 37-107 60.2-167 71.2-26.4 5-101.6 6-128 1.8zM542.4 813.2c39-2.2 87.6-15.4 128.8-35.2 103.2-49.8 176.4-144 200.8-259 5.4-25.6 7.6-85.6 4.2-114.4-19.2-157.8-137-284.6-294.2-316.6-40.6-8.2-99.6-8.4-140 0-147.6 30-257.6 140-290.4 290-4 18.6-4.4 26.6-4.6 69 0 42.6 0.6 50.4 4.6 70 31.2 149 143 261.2 290.4 291 19.8 4 62 7.8 75 6.6 3.4-0.2 14.8-0.8 25.4-1.4zM459.2 781c-51.4-8.4-100.4-28.6-144.2-59.4-23.2-16.4-60.4-53.4-77.6-77.6-25.2-35.6-45.8-82.8-55.8-128.6-4-18-4.6-26-4.4-67.4 0-41 0.6-49.6 4.4-67.2 29.6-135.6 131.8-236.6 267.4-264.2 28-5.6 102.4-5 130.4 1 45.2 9.8 93.2 30.8 128.6 55.8 24.4 17.4 61.2 54.4 78.4 78.6 25.4 35.8 46.2 83.4 56 128.6 4 17.8 4.4 26.2 4.4 67.4s-0.4 49.6-4.4 67.4c-10 45.6-30.6 93-55.8 128.6-17.4 24.4-54.2 61.2-78.6 78.6-35.4 25-83.2 46-127.4 55.6-25.8 5.6-94.4 7.2-121.4 2.8zM539.2 749.2c49-3 110.6-26.4 152.8-58 21-15.8 48.2-43.2 64-64.2 23.4-31.4 44.4-79 53.4-121 5.2-24.2 5.2-91.8 0-116-12.8-60.2-42.2-114.6-84.6-156.6-23.6-23-44.8-38.6-73-53.2-51.2-26.6-101.2-37.2-159.8-33.8-41.6 2.2-80.4 13.2-119.8 33.8-28.2 14.4-49.2 30-72.8 53.2-42.6 42.2-72 96.2-84.8 156.6-5.2 24.2-5.2 91.8 0 116 7.4 34.4 24.2 76.6 41 102.8 23.2 36 59.4 72.2 95.6 95.6 26 16.6 69 33.8 101.8 40.6 16.2 3.4 53.2 6.6 64 5.6 3.4-0.2 13.2-0.8 22.2-1.4zM591 545.6c-1.6-4.6-47-187.4-47-189.4 0-2.8 32.2-10.2 33-7.6 2 5.8 47 187.6 47 190 0 1.6-5.4 4-14.4 6-17.4 4-17.4 4-18.6 1zM288.8 540.2c-19.8-9-32.8-28.2-32.8-48.6v-11.6h31.6l1.4 8.4c2.2 12.4 12 21.6 23 21.6 6.8 0 9.6-1.2 15.2-6.8 6-6 6.8-8 6.8-17 0-6.6-1.6-13.4-4.2-18.4-2.2-4.6-19.8-27-39-50-32.2-38.8-34.8-42.4-34.8-49.8 0-5.4 1.4-9.4 4-12 3.8-3.8 6.6-4 56-4h52v32h-60.2l23.2 27.6c29.8 35.4 35.6 46.6 36.6 71.4 0.8 15.2 0.2 20-3 27.4-5.6 12.4-15.2 22.6-27 28.4-13.2 6.6-36 7.2-48.8 1.4zM469.6 541.6c-1.8-1.4-21.8-32.2-44.4-68.4-34.8-55.8-41.2-67.2-41.2-73.6 0-5 1.4-9 4-11.6 3.8-3.8 6.6-4 40-4h36v-32h32v32h32v32h-32v60c0 57.4-0.2 60.2-4 64-4.6 4.6-17.4 5.4-22.4 1.6zM464 442v-26h-33.8l16.4 26c9 14.2 16.6 26 17 26 0.2 0 0.4-11.6 0.4-26zM644 540c-3.4-3.4-4-6.6-4-24v-20h32v16h52l-4.8-9.6c-7.4-14.4-20.6-55-25.2-77.4-2.2-11-4.6-32-5.4-46.6l-1.2-26.6 33.6 1.2 1.2 22c2.4 43 13.6 84 34 124.2 12.8 25.4 14.4 34.2 7.8 40.8-3.8 3.8-6.6 4-60 4s-56.2-0.2-60-4zM820 812c-3.8-3.8-4-6.6-4-48v-44h32v22.6l0.2 22.4 10.2-11c37-39.6 73.8-103.2 92.6-160.6 16.6-50.6 23-90.6 23-144.8 0-75.4-14-136.8-46.8-203.6-46.4-94.6-117.6-165.8-212.2-212.2-58.4-28.6-115-43.4-177-46.6l-25-1.2-1.2-33.6 28.6 1.2c142.8 6 281.2 79.6 368.2 196 53.2 71.2 84.8 148.6 96.4 236 4 31.2 4 95.6 0 126.8-12.4 93.8-51.2 183.2-110.8 254.6l-14.2 17 32 1.2v31.8h-44c-41.4 0-44.2-0.2-48-4zM159.4 798.4l-11.4-11.6 24-23.6 24 23.6-11.4 11.6c-6.4 6.4-12 11.6-12.6 11.6s-6.2-5.2-12.6-11.6zM118.2 751.6c-5.6-7-10-13.4-10-14.6-0.2-1 5.8-6.2 13-11.4l13.2-9.4 9.8 12.4c5.4 6.8 9.6 13 9.2 13.6-0.2 0.6-6 5.8-12.8 11.6l-12.4 10.2-10-12.4zM81.6 696.8c-4.2-7.2-7.6-14-7.6-14.8 0-1.8 24.6-16 27.6-16 1.8 0 16.4 23.8 16.4 26.6 0 1.4-25.4 17.4-27.4 17.4-1 0-5-6-9-13.2zM53.6 640.4c-3-7.4-5.8-14.6-6-16.2-0.6-3.2 28.2-15.2 30.6-12.8 1.2 1.4 11.8 26.2 11.8 27.8 0 0.6-29.8 14.8-30.8 14.8-0.2 0-2.6-6-5.6-13.6zM33.2 581.8c-1.8-5.6-3.6-13-4.2-16.4l-1.2-6.4 16.2-3.6c9-2 16.6-3.4 17-3 1 1.4 7.4 29.8 6.8 30.4-1 1-27.8 9.2-30 9.2-0.8 0-3-4.6-4.6-10.2zM21.2 526.8c-0.4-1.2-1.6-8.8-2.4-16.6-1.6-16.2-2.6-15.4 18.4-17.2l14.4-1.2 1.4 15.2c0.8 8.4 0.8 15.8 0.2 16.6-0.8 0.6-8 2.2-16.2 3.4-11.6 1.8-15 1.8-15.8-0.2zM16 447v-17h6.6c3.4 0 11.2 0.6 17 1.2l10.4 1.4v31.4h-34v-17zM34 401.6c-8.2-1-15.2-2.2-15.6-2.6-1.2-1.2 1.8-28 3.4-30.6 2-3.4 34.8 1.4 33.4 4.8-0.6 1.4-1.6 8.8-2.4 16.6-0.6 7.8-1.8 14-2.6 14-0.6-0.2-8-1.2-16.2-2.2zM44.4 340c-8-1.8-15-4-15.6-4.6s0.8-8.2 3.2-17l4.4-16.2 9.2 3c5.2 1.6 11.8 3.4 15 4.2 3 0.6 6 2 6.6 3 1.2 2-5.4 31.8-7 31.4-0.6-0.2-7.8-1.8-15.8-3.8zM62 279.6c-8.2-3.2-15.2-6.2-15.4-6.2-0.2-0.4 11.6-29.8 12.6-31 0.4-0.6 28.8 11.2 30.6 12.8 0.8 0.8-10 28.8-11.6 29.6-0.6 0.4-8-2-16.2-5.2zM87.6 222.6c-7.6-4.2-13.6-8-13.6-8.8 0-3 15.2-27.8 16.8-27.8 3.6 0 27.2 15 27.2 17.4 0 2.8-14 26.6-15.8 26.6-0.6 0-7.2-3.4-14.6-7.4zM120.4 169c-7-5.2-12.4-10-12-11 0.4-0.8 5-7.2 10.2-14l9.6-12.2 5.4 4c3 2.2 9 7.2 13.4 11l8 6.8-9.2 11.6c-5 6.4-10 11.8-11 12.2s-7.6-3.4-14.4-8.4zM161.6 121.8c-6.4-5.6-11.6-11.2-11.6-12.6 0-2.8 20.4-23.2 23.2-23.2 1.2 0 6.8 5.2 12.4 11.8l10.2 11.8-11.2 11.2c-6.2 6.2-11.2 11.2-11.4 11.2s-5.4-4.6-11.6-10.2zM206.2 77.6c-5.6-6.8-9.6-13-9-14 1.2-2 24.2-19.6 25.6-19.6 2.2 0 19.4 26 18.4 27.6-1.4 2.4-22.2 18.4-23.8 18.4-0.6 0-5.8-5.6-11.2-12.4zM260.4 46.6c-2.4-4.2-6.2-10.4-8.4-13.8l-4.2-6.4 14.4-8.2c7.8-4.6 14.8-8.2 15.6-8.2 1.8 0 16.8 28 15.6 29.2-2.6 2.6-24.2 14.8-26.2 14.8-1.4 0-4.4-3.4-6.8-7.4zM312.4 10.8c-3.8-8.4-6.4-15.4-6-15.6 0.2-0.4 7.4-3.4 15.6-6.8 17-7 15.2-7.8 22.8 12.2l5.2 13.6-7 3c-3.8 1.6-10.2 4.2-14.2 5.8s-7.8 3-8.6 3c-0.6 0-4.2-6.8-7.8-15.2zM375 1.6c-0.4-1.4-2.2-7.6-4-13.6s-3.6-12-4-13.4c-0.8-2.2 30.4-11.8 32.4-9.8 1 1 8.6 32 8 32.4-1.2 0.6-27.6 6.8-29.4 6.8-1.2 0-2.4-1.2-3-2.4zM435-11c-2-6-5-29.6-4.2-30.6 1.4-1.4 18.4-4.2 26.6-4.2 6.2-0.2 6.4 0.2 7.6 9.4 0.6 5.2 1.6 12.6 2 16.6l1 7-16.2 2c-11 1.4-16.4 1.2-16.8-0.2z" />
<glyph unicode="&#xe92c;" glyph-name="deadline1" d="M143.4 889.2c-18.8-6.8-33-21.4-38.4-39.8-1.8-6.2-3-18.4-3-31.8v-21.6h-18c-31.6 0-47.8-5.4-63.8-21.6-14-14.2-18.8-25.8-19.8-47.4-0.8-16.2-0.4-18.4 3.2-21.6 5.2-4.8 17.4-5 22.2-0.6 2.4 2.2 4.2 7.6 5 16.6 3.2 30.8 17.6 42.6 52.2 42.6h19v-23c0-18.4 0.8-25 4.2-34.2 18.8-50 89-52.2 111.2-3.4 4.2 9.2 5.2 15 6.2 35.8l1 24.8h73.4v-17.8c0-31.8 4.8-47.4 19.6-61.6 28.8-28 78-19.4 95.8 17 5 10 5.6 13.8 6.2 36.8l0.8 25.6h75.6v-24c0-28.8 3.6-40.8 16.2-53.6 11.4-11.6 24-17.2 40.2-18 19.6-1.2 31.8 3.4 45.8 17.4 15 15 17.8 23.8 17.8 54.6v23.6h76v-23c0-18.4 0.8-25 4.2-34.2 18.8-50 89-52.2 111.2-3.4 4.2 9.2 5.2 15 6.2 35.8l1 24.8h18.4c16.4 0 19.8-0.6 29.2-5.6 8.6-4.4 11.8-7.6 16.2-16.2l5.6-10.6v-111.6h-854v22c0 19.4-0.4 22.4-4 26-5.4 5.4-16.6 5.4-22 0-4-4-4-5.8-3.6-276.6l0.6-272.4 5-10c6-12 20.6-27.2 31.2-32.6 16.6-8.4 18.4-8.4 297-8.4h267.8l13.8-10.4c50.2-38.2 105-55.6 167-53 28.4 1.2 47 4.4 71 12.6 28.2 9.8 67.4 31.8 72.2 40.8 3.4 6.4 2.2 12-4 18.2-7.2 7.2-11.6 6.6-29-4.2-70.6-43.8-150.8-48-222-11.4-47 24.4-86.8 68.2-105 115.6-32.6 85.4-11.6 178.2 54.2 240.8 43.8 41.6 101.2 63.2 160.8 60.4 90.4-4.4 167.8-61.4 199-146.8 16-44 16.4-101.6 0.8-145-7.6-20.8-18.8-42.4-30.6-58.6-7-9.6-10.2-15.8-10.2-20 0-11.8 10-19.2 20.8-15.2 11.8 4.6 39.4 50.8 51 85.4 16.8 50 16.4 110.4-0.8 161.8-14.4 43.4-46.6 89-81.2 115.4l-13.8 10.6v134.2c0 116.6-0.4 135.4-3.2 144.8-6.2 20.8-18.6 35.2-38.8 44.6-11.6 5.6-15.4 6.2-36.2 7l-23.2 0.8-1.2 24.6c-1.2 29.2-5.6 41.2-19.6 54.6-23.6 22.8-64 21.4-86.2-3.2-11.6-12.8-15.6-26.6-15.6-53.4v-23h-75.6l-0.8 26.6c-0.6 29.8-3.8 39-17.4 52.2-12.8 12.4-23 16.2-42.2 16.2-20 0-30.6-4.2-43.8-17.4-12.6-12.8-16.2-24.8-16.2-53.6v-24h-75.6l-0.8 25.6c-0.6 23-1.2 26.8-6.2 37-22.2 45.2-87.8 44-109-2.2-4.2-9.4-5.2-14.8-6-35.8l-1-24.6h-72.8l-1 24.8c-1.4 29.2-5.8 41.6-19.6 55-14.8 14.4-41.2 20.2-60.6 13.4zM176 856.2c3.8-2 8.8-6.8 11-10.4 3.8-6.4 4-10.4 4-65.8 0-65.8-0.4-67.6-13.6-75.8-14-8.6-32.4-3-39.8 11.8-3.2 6.2-3.6 13.8-3.6 64s0.4 57.8 3.6 64c7.2 14.6 24.2 20 38.4 12.2zM374.2 855.4c13.2-8.8 13.8-11.8 13.8-75.4 0-50.2-0.4-57.8-3.6-64-10.8-21.4-40.6-21.2-50.4 0.6-3.6 7.6-4 13.4-4 63.4 0 53.2 0.2 55.4 4.6 64 7.6 15.4 25.8 20.6 39.6 11.4zM569.6 856c3.6-2.2 8.2-6.8 10.4-10.4 3.8-6.2 4-10.2 4-65.6s-0.2-59.4-4-65.6c-11.6-19-38.6-18.8-49 0.6-2.8 5.2-3.2 13.8-2.6 67.2 0.6 58 0.8 61.6 4.6 65.8 10.6 12 24.8 15.2 36.6 8zM765.2 856.8c3.6-1.8 8.8-6.6 11.2-10.6 4.6-7 4.6-8.4 4.6-66.2 0-55.4-0.2-59.4-4-65.8-8-13.6-26.4-18.2-39.2-9.6-13.2 8.8-13.8 11.8-13.8 75.4 0 50.2 0.4 57.8 3.6 64 7 14.2 23.2 19.6 37.6 12.8zM176 517v-71h-146v142h146v-71zM354 517v-71h-146v142h146v-71zM530 517v-71h-146v142h146v-71zM708 545.2v-42.6l-18.4-6.6c-24.6-8.4-49.6-21.8-70.4-37.4l-16.8-12.6h-40.4v142h146v-42.8zM884 536.2v-51.8l-16.8 6.8c-33.6 13.8-70 20-106.4 18.4l-20.8-1v79.4h144v-51.8zM176 344v-70h-146v140h146v-70zM354 344v-70h-146v140h146v-70zM530 372.8c0-34.2-0.6-43.8-4-56.4-2-8.6-4.4-21.4-5.2-28.8l-1.4-13.6h-135.4v140h146v-41.2zM176 171v-71h-54.4c-31.4 0-57.8 1-62 2-9.8 2.8-18.6 10.4-24.2 20.8-4.2 7.8-4.4 11-5 63.8l-0.8 55.4h146.4v-71zM354 171v-71h-146v142h146v-71zM519.6 233c0.8-13 8.4-46.6 13.8-61.8 6.8-19 18.4-41.6 29.4-57.8l9.2-13.4h-188v142l67.6-0.4 67.4-0.6 0.6-8zM749 442.6c-31.8-4.4-72.8-21.4-90-37.6-8.6-8-9.4-9.4-8.2-15.4 3-15.4 15.6-17.6 33.6-5.4 27.2 18.6 53.4 26.6 87.6 26.6 18 0.2 26.4-0.8 38.6-4.4 41.4-11.8 73.6-36.4 94.6-72.4 13.4-22.6 19-42.4 20.2-70 1.4-33.6-4.8-59-21.6-87.4-9.6-16.2-36-42.4-52.8-52.2-59.8-35.2-133.6-27.6-183 19-34.2 32.2-50.4 68.6-50.2 113.6 0 25.2 4 42.8 15.4 66.8 10.4 22 11.2 30 3.6 36-10.8 8.4-19 4.4-29.2-14.2-14.8-27.4-21.8-55.2-21.8-87.6-0.2-55.2 18.6-99.2 58.4-137.2 32.6-30.8 72.8-47.8 118.8-50.2 86.4-4.4 162.2 49.8 188.4 134.8 5 16.2 5.4 20.2 5.4 51.6 0 31.2-0.6 35.4-5.6 52-21.4 70.4-78.2 120.4-150 132-17 2.8-38.6 3.4-52.2 1.6zM761 363l-5-4.8v-64c0-35.2 0.6-65.4 1.2-67.2 3.2-8.2 9.8-9 73.2-9 65.2 0 68.4 0.6 73 10.4 3.2 6.2 0.2 16.6-5.4 19.6-2.2 1.2-26 2-56.8 2h-53.2v52.2c0 52.8-0.6 57.6-7.8 63.2-5.2 4-14 3-19.2-2.4z" />
<glyph unicode="&#xe92d;" glyph-name="add" d="M502.4 908c-3.6-2.2-8.2-6.8-10.4-10.4-4-6.4-4-10.6-4-216v-209.6h-209.4c-205.6 0-209.8 0-216.2-4-9.6-6-14.4-15-14.4-28s4.8-22 14.4-28c6.4-4 10.6-4 216.2-4h209.4v-209.4c0-205.6 0-209.8 4-216.2 6-9.6 15-14.4 28-14.4s22 4.8 28 14.4c4 6.4 4 10.6 4 216.2v209.4h209.6c205.4 0 209.6 0 216 4 9.6 6 14.4 15 14.4 28s-4.8 22-14.4 28c-6.4 4-10.6 4-216 4h-209.6v209.6c0 205.4 0 209.6-4 216-6 9.6-15 14.4-28 14.4-7.4 0-13.2-1.2-17.6-4z" />
<glyph unicode="&#xe92e;" glyph-name="plus" d="M451 957.6c-92.2-10.4-187.2-50.6-261.8-110.6-24-19.2-68.6-65.2-86.6-89.2-42-56-72.2-119.6-88.6-186.2-11.4-46.6-13-61.6-13-123.6s1.6-77 13-123.6c13.4-54.2 39.4-113.8 69.2-158.4 75-112.2 187.6-190 316.8-218.8 41.4-9.2 71.6-11.8 124-10.6 62.2 1.4 106.8 9 159 27.4 36.8 13 95.2 42 103.4 51.4 10.8 12.4 13.6 33.2 6.2 47.6-7.6 14.6-18.6 21-36.4 21-10.2 0-14-1.2-26.6-8-54-29.8-106.8-47.8-161-55-27-3.6-81.8-4-105.6-1-54.4 7-98.8 20.4-146 44.6-122.2 62.2-204.4 174-230.4 313.4-5 27.2-5 112.8 0 140 26.2 139.8 108 251 231 313.8 43.2 22 88.4 36.2 137.2 43.2 28.8 4.2 85 4.2 115.2 0 105-14.8 203.6-69 270.4-149 50-59.8 82.4-129 96.6-207 4.4-23.8 6.2-92.2 3.2-118.2-7.4-62.8-27.8-121.2-62.2-178.6-13.4-22.4-14-24-14-36.2 0-24.6 15.4-40 40.2-40 19.2 0 27.4 6 43 31.2 36 58.2 58.4 117.6 71 188.2 6 33.6 7.6 107 3 144.6-11.4 93.2-48.8 183.2-106.6 256.6-14.6 18.6-65.4 69.4-84 84-72.8 57.4-163 95-254.6 106.4-27.4 3.4-97.8 3.8-125 0.6zM490.6 662.8c-4.8-2.8-10.8-8.8-13.6-13.6l-5-8.6v-152.6h-152.6l-8.6-5c-12.6-7.4-18.8-19-18.8-35s6.2-27.6 18.8-35l8.6-5h152.6v-152.6l5-8.6c7.4-12.6 19-18.8 35-18.8s27.6 6.2 35 18.8l5 8.6v152.6h152.6l8.6 5c12.6 7.4 18.8 19 18.8 35s-6.2 27.6-18.8 35l-8.6 5h-152.6v152.6l-5 8.6c-7.4 12.6-19 18.8-35.2 18.8-10.2 0-14.6-1-21.2-5.2z" />
<glyph unicode="&#xe92f;" glyph-name="plus-1" d="M448 957c-92.4-12-171.2-44.4-248-101.8-24.4-18.2-77-70.8-95.2-95.2-53.6-71.6-86.8-149.4-100.2-234-5.2-32.8-5.2-123.2 0-156 16.4-103.8 63.8-199.6 136-275.2 78.8-82.4 174.8-133.4 288.2-153.2 34.8-6 108.6-7.4 145.4-2.6 237.6 29.8 422 216.8 447.8 454.4 3.2 29 1.6 106.6-2.8 133.4-36.8 226.8-217.6 402.2-443.2 430.2-30 3.6-100.2 3.6-128 0zM570 890.8c161-20.2 303.4-133.4 360.6-286.8 31-83 36.2-179.6 14.4-265.2-40-156.4-160.8-279.2-316.6-322-88.6-24.2-189.4-19.2-275.6 13.8-133 51-235.8 165.4-272.8 303.8-19 71.4-19 155.8 0 227.2 21 78.4 63.2 150.4 121.2 206.4 99.4 96.2 231.4 140 368.8 122.8zM494.4 700c-3.6-2.2-8.2-6.8-10.4-10.4-3.8-6.4-4-10.4-4-108v-101.6h-101.4c-97.8 0-101.8-0.2-108.2-4-9.6-6-14.4-15-14.4-28s4.8-22 14.4-28c6.4-3.8 10.4-4 108.2-4h101.4v-101.4c0-97.8 0.2-101.8 4-108.2 6-9.6 15-14.4 28-14.4s22 4.8 28 14.4c3.8 6.4 4 10.4 4 108.2v101.4h101.6c97.6 0 101.6 0.2 108 4 9.6 6 14.4 15 14.4 28s-4.8 22-14.4 28c-6.4 3.8-10.4 4-108 4h-101.6v101.6c0 97.6-0.2 101.6-4 108-6 9.6-15 14.4-28 14.4-7.4 0-13.2-1.2-17.6-4z" />
<glyph unicode="&#xe930;" glyph-name="location" d="M640.8 957c-48.8-10.6-92.8-47.6-112.8-94.6-15.8-37.2-16.2-85.2-0.8-123.6 7-18 12.4-26.2 55-85 19.6-27 38.4-54.8 41.6-61.8 3.4-7 8-21.2 10.4-31.8 6.2-27.8 10.6-35.4 24.2-42.4 9.4-4.8 27.4-5 36.2-0.6 15.4 7.8 19.6 14.8 25.6 42.2 5.4 25.4 11.8 39 30.6 64.6 16 22.2 18.2 28.8 12.2 37.4-3.8 5.4-12.2 7.4-18.8 4.6s-33.6-40.4-43-59.8c-3.8-8-9-23.2-11.4-33.8-5.2-23.6-6.6-26.4-13-26.4-5.8 0-7 2.4-12.8 28-2.4 10.4-7.4 25.4-11 33-3.6 7.8-24.2 38.4-45.8 68-43.8 60.6-49.6 70.2-55.2 92.2-11.4 44.4 1.2 90.4 33.8 122.8 26 26 55 38 92 38 22.8 0 38.2-3.8 58.4-14.2 69.4-36 91.4-121.2 48.4-186.4-13.4-20.2-15-27.2-8-34.2 6-6 14.2-6.8 21-2 5.8 4 19.4 24.2 26.6 39.4 14.6 31.2 18.6 75.4 10 108.4-15.4 58.2-59.6 102.2-117.8 117.2-18 4.6-56.6 5-75.6 0.8zM654 880.8c-38.8-10.4-65-48.6-61.2-89.2 4.8-52.6 54.4-87.8 105.2-74.8 25.6 6.6 45 22.8 56.8 47.2 5.8 12.2 6.2 14.6 6.2 35 0 20.6-0.4 22.8-6.2 35-3.4 7.2-9.6 16.8-13.6 21.4-20.6 23.8-55.6 33.8-87.2 25.4zM695 848.6c6.2-2 13.4-6.8 19-12.6 25.8-25.6 19.2-67.6-13.2-84-13.2-6.6-34-7-46-0.6-39.8 21-40.4 73.8-1.2 94 14.8 7.6 26.2 8.6 41.4 3.2zM46 726.2c-17.8-5.4-32.8-18.8-40.8-36.2l-5.2-11v-694l5.8-12c7-14.6 17.6-25 32.2-31.8l11-5.2h926l12 5.8c14.8 7 25.2 17.6 32 32.4l5 11.2-0.4 348.8-0.6 348.8-5.4 10c-6.4 12-17.4 22.8-29.6 29.2-8.8 4.6-10.4 4.8-70.2 5.4l-61.4 0.6-4.2-5.4c-5.6-7-5.4-13.2 0.6-20.2l4.8-5.6 57-1c54-1 57.4-1.2 62.8-5.2 10.8-8 14.6-16 14.6-31v-13.8h-189.4l-4.2-4.6c-6.4-6.8-6-17.8 0.8-23.2 4.6-3.6 8.2-4.2 26-4.2 11.4 0 20.8-0.4 20.8-1 0-2-410.4-491-412.2-491-2 0-100.4 85.2-101.4 87.8-0.2 0.8 61.2 75.2 136.6 165.2 75.4 90.2 137.8 166 138.4 168.8 3 11.8-8 22.4-19.6 19-4.4-1.4-41-43.8-149.8-173.8-79.2-94.6-144.6-174.2-145.4-176.8-0.6-2.6-0.4-6.8 0.6-9.4s60.8-56.2 132.8-119c72-62.8 131.8-115 132.8-116 1.2-1-24.8-1.8-67-1.8h-68.8l-93 81c-51 44.6-95 81.6-97.8 82.4-2.8 0.6-7 0-10-1.6-2.8-1.6-34.4-38-70.4-80.8-35.8-42.8-66.6-78.6-68.2-79.6-1.6-1.2-8.8-1.4-16.2-0.6-15 1.6-23.8 6.6-30.8 17-4.2 6.2-4.6 9-4.6 34.2v27.2l59 70.6c32.4 38.8 59.6 72.6 60.2 75.2 1.4 5.4-3.6 16-8.2 17.8-1.8 0.6-5.8 1.2-8.8 1.2-7 0-10.6-3.8-62.2-65.8l-39-46.8-0.6 106.2c-0.2 58.6-0.2 154 0 212l0.6 105.8 205-179.2-36.8-43.6c-38.4-46-41.2-49.8-41.2-56.6 0-6.6 8.8-14 16.8-14 8.4 0 7.8-0.6 60 61.8 35.4 42.6 39.2 47.6 39.2 54.4 0 9.2 9 0.8-134.8 125.8l-109 95-0.2 24.6v24.4h41.6l41.4-0.2 108.4-94.6c59.4-52 110.2-95.2 112.6-95.8 2.6-0.6 7-0.2 10 1.2 3.4 1.4 36.6 39.6 83.4 95.4l77.8 93 22 1c12 0.6 23.2 1.8 25.2 2.8 1.8 0.8 4.4 4.2 5.6 7.4 3 6.8-0.2 16.6-6.2 19.8-2.2 1.2-100.6 2-262.6 2h-259.2v13.8c0 15.4 4.2 23.8 15.8 31.6l6.8 4.6h217.4c153.6 0 219.2 0.6 223.8 2.2 10.6 3.8 13.8 17 6.2 25.4l-4.2 4.4-223.4-0.2c-122.8 0-225.6-0.8-228.4-1.6zM462.8 611.6c-4.4-7.2-123.2-147.6-125-147.6-1.6 0-151.8 129.8-166.8 144.2l-6 5.8h149.6c119.2 0 149.4-0.6 148.2-2.4zM992 604v-10l-114-136c-119.4-142.6-118.2-141.2-111.2-151.2 1.6-2.2 52.8-47.6 114-101l111.2-96.8v-59.4c0-32.8-0.4-59.6-1-59.6s-57.4 49.2-126.6 109.6c-69 60.2-132.4 115.6-140.8 123-13.6 11.6-16.6 13.4-23.4 13.4-8 0-8.2-0.2-45-44.4-38.4-45.6-40.6-49.4-35.2-59.4 3-6 13-9.2 19.6-6.4 3 1.4 18 17.6 34.2 37l28.8 34.8 118.2-103.2c65-56.8 123.8-108.2 130.8-114.2 10.6-9.2 12-11.4 9-12.4-2-0.8-81.4-1.6-176.6-1.6l-173-0.2-29 25.2c-16 13.8-28.8 26-28.4 27 0.2 1.2 12.6 16.4 27.4 34 22.8 27.2 27 33 27 38.6 0 8.4-5.2 14.8-13.2 16.4-8.2 1.6-13.6-3.2-42.8-39-12.6-15.4-23.6-28-24.6-28-1.6-0.2-66 55.6-67 58-0.4 0.8 96.2 117.2 214.6 258.6l215.2 257.2h101.8v-10zM991.2 154.4c-1.4-1.2-187.4 161.8-186.8 163.6 0.4 1 42.4 51.8 93.6 113l93 111 0.6-193.2c0.2-106.4 0-193.8-0.4-194.4zM305.6 25l66.6-58-61.2-0.6c-33.6-0.2-88.6-0.2-122.2 0l-61.4 0.6 51.6 61.4c51.2 61.4 51.4 61.6 55.8 58 2.4-1.8 34.4-29.4 70.8-61.4z" />
<glyph unicode="&#xe931;" glyph-name="deadline" d="M143.4 889.2c-18.8-6.8-33-21.4-38.4-39.8-1.8-6.2-3-18.4-3-31.8v-21.6h-18c-31.6 0-47.8-5.4-63.8-21.6-14-14.2-18.8-25.8-19.8-47.4-0.8-16.2-0.4-18.4 3.2-21.6 5.2-4.8 17.4-5 22.2-0.6 2.4 2.2 4.2 7.6 5 16.6 3.2 30.8 17.6 42.6 52.2 42.6h19v-23c0-18.4 0.8-25 4.2-34.2 18.8-50 89-52.2 111.2-3.4 4.2 9.2 5.2 15 6.2 35.8l1 24.8h73.4v-17.8c0-31.8 4.8-47.4 19.6-61.6 28.8-28 78-19.4 95.8 17 5 10 5.6 13.8 6.2 36.8l0.8 25.6h75.6v-24c0-28.8 3.6-40.8 16.2-53.6 11.4-11.6 24-17.2 40.2-18 19.6-1.2 31.8 3.4 45.8 17.4 15 15 17.8 23.8 17.8 54.6v23.6h76v-23c0-18.4 0.8-25 4.2-34.2 18.8-50 89-52.2 111.2-3.4 4.2 9.2 5.2 15 6.2 35.8l1 24.8h18.4c16.4 0 19.8-0.6 29.2-5.6 8.6-4.4 11.8-7.6 16.2-16.2l5.6-10.6v-111.6h-854v22c0 19.4-0.4 22.4-4 26-5.4 5.4-16.6 5.4-22 0-4-4-4-5.8-3.6-276.6l0.6-272.4 5-10c6-12 20.6-27.2 31.2-32.6 16.6-8.4 18.4-8.4 297-8.4h267.8l13.8-10.4c50.2-38.2 105-55.6 167-53 28.4 1.2 47 4.4 71 12.6 28.2 9.8 67.4 31.8 72.2 40.8 3.4 6.4 2.2 12-4 18.2-7.2 7.2-11.6 6.6-29-4.2-70.6-43.8-150.8-48-222-11.4-47 24.4-86.8 68.2-105 115.6-32.6 85.4-11.6 178.2 54.2 240.8 43.8 41.6 101.2 63.2 160.8 60.4 90.4-4.4 167.8-61.4 199-146.8 16-44 16.4-101.6 0.8-145-7.6-20.8-18.8-42.4-30.6-58.6-7-9.6-10.2-15.8-10.2-20 0-11.8 10-19.2 20.8-15.2 11.8 4.6 39.4 50.8 51 85.4 16.8 50 16.4 110.4-0.8 161.8-14.4 43.4-46.6 89-81.2 115.4l-13.8 10.6v134.2c0 116.6-0.4 135.4-3.2 144.8-6.2 20.8-18.6 35.2-38.8 44.6-11.6 5.6-15.4 6.2-36.2 7l-23.2 0.8-1.2 24.6c-1.2 29.2-5.6 41.2-19.6 54.6-23.6 22.8-64 21.4-86.2-3.2-11.6-12.8-15.6-26.6-15.6-53.4v-23h-75.6l-0.8 26.6c-0.6 29.8-3.8 39-17.4 52.2-12.8 12.4-23 16.2-42.2 16.2-20 0-30.6-4.2-43.8-17.4-12.6-12.8-16.2-24.8-16.2-53.6v-24h-75.6l-0.8 25.6c-0.6 23-1.2 26.8-6.2 37-22.2 45.2-87.8 44-109-2.2-4.2-9.4-5.2-14.8-6-35.8l-1-24.6h-72.8l-1 24.8c-1.4 29.2-5.8 41.6-19.6 55-14.8 14.4-41.2 20.2-60.6 13.4zM176 856.2c3.8-2 8.8-6.8 11-10.4 3.8-6.4 4-10.4 4-65.8 0-65.8-0.4-67.6-13.6-75.8-14-8.6-32.4-3-39.8 11.8-3.2 6.2-3.6 13.8-3.6 64s0.4 57.8 3.6 64c7.2 14.6 24.2 20 38.4 12.2zM374.2 855.4c13.2-8.8 13.8-11.8 13.8-75.4 0-50.2-0.4-57.8-3.6-64-10.8-21.4-40.6-21.2-50.4 0.6-3.6 7.6-4 13.4-4 63.4 0 53.2 0.2 55.4 4.6 64 7.6 15.4 25.8 20.6 39.6 11.4zM569.6 856c3.6-2.2 8.2-6.8 10.4-10.4 3.8-6.2 4-10.2 4-65.6s-0.2-59.4-4-65.6c-11.6-19-38.6-18.8-49 0.6-2.8 5.2-3.2 13.8-2.6 67.2 0.6 58 0.8 61.6 4.6 65.8 10.6 12 24.8 15.2 36.6 8zM765.2 856.8c3.6-1.8 8.8-6.6 11.2-10.6 4.6-7 4.6-8.4 4.6-66.2 0-55.4-0.2-59.4-4-65.8-8-13.6-26.4-18.2-39.2-9.6-13.2 8.8-13.8 11.8-13.8 75.4 0 50.2 0.4 57.8 3.6 64 7 14.2 23.2 19.6 37.6 12.8zM176 517v-71h-146v142h146v-71zM354 517v-71h-146v142h146v-71zM530 517v-71h-146v142h146v-71zM708 545.2v-42.6l-18.4-6.6c-24.6-8.4-49.6-21.8-70.4-37.4l-16.8-12.6h-40.4v142h146v-42.8zM884 536.2v-51.8l-16.8 6.8c-33.6 13.8-70 20-106.4 18.4l-20.8-1v79.4h144v-51.8zM176 344v-70h-146v140h146v-70zM354 344v-70h-146v140h146v-70zM530 372.8c0-34.2-0.6-43.8-4-56.4-2-8.6-4.4-21.4-5.2-28.8l-1.4-13.6h-135.4v140h146v-41.2zM176 171v-71h-54.4c-31.4 0-57.8 1-62 2-9.8 2.8-18.6 10.4-24.2 20.8-4.2 7.8-4.4 11-5 63.8l-0.8 55.4h146.4v-71zM354 171v-71h-146v142h146v-71zM519.6 233c0.8-13 8.4-46.6 13.8-61.8 6.8-19 18.4-41.6 29.4-57.8l9.2-13.4h-188v142l67.6-0.4 67.4-0.6 0.6-8zM749 442.6c-31.8-4.4-72.8-21.4-90-37.6-8.6-8-9.4-9.4-8.2-15.4 3-15.4 15.6-17.6 33.6-5.4 27.2 18.6 53.4 26.6 87.6 26.6 18 0.2 26.4-0.8 38.6-4.4 41.4-11.8 73.6-36.4 94.6-72.4 13.4-22.6 19-42.4 20.2-70 1.4-33.6-4.8-59-21.6-87.4-9.6-16.2-36-42.4-52.8-52.2-59.8-35.2-133.6-27.6-183 19-34.2 32.2-50.4 68.6-50.2 113.6 0 25.2 4 42.8 15.4 66.8 10.4 22 11.2 30 3.6 36-10.8 8.4-19 4.4-29.2-14.2-14.8-27.4-21.8-55.2-21.8-87.6-0.2-55.2 18.6-99.2 58.4-137.2 32.6-30.8 72.8-47.8 118.8-50.2 86.4-4.4 162.2 49.8 188.4 134.8 5 16.2 5.4 20.2 5.4 51.6 0 31.2-0.6 35.4-5.6 52-21.4 70.4-78.2 120.4-150 132-17 2.8-38.6 3.4-52.2 1.6zM761 363l-5-4.8v-64c0-35.2 0.6-65.4 1.2-67.2 3.2-8.2 9.8-9 73.2-9 65.2 0 68.4 0.6 73 10.4 3.2 6.2 0.2 16.6-5.4 19.6-2.2 1.2-26 2-56.8 2h-53.2v52.2c0 52.8-0.6 57.6-7.8 63.2-5.2 4-14 3-19.2-2.4z" />
</font>
</defs>
</svg>
